<?xml version="1.0" standalone="no"?><!DOCTYPE svg PUBLIC "-//W3C//DTD SVG 1.1//EN" "http://www.w3.org/Graphics/SVG/1.1/DTD/svg11.dtd" ><svg version="1.1" xmlns="http://www.w3.org/2000/svg"><defs><font horiz-adv-x="0" id="font"><font-face ascent="750" bbox="-51.4776 -260 1280 1185" cap-height="750" descent="-250" font-family="Apex Sans Book" font-stretch="normal" font-style="normal" font-weight="500" units-per-em="1000" x-height="500" /><missing-glyph d="M151 632V118L408 375ZM759 118V632L502 375ZM193 66H717L455 328ZM455 422 717 684H193ZM80 750H830V0H80Z" horiz-adv-x="910" /><glyph d="M212 272H458L335 647ZM547 0 478 210H192L123 0H45L310 760H360L625 0Z" glyph-name="A" horiz-adv-x="670" unicode="A" /><glyph d="M520 422V664L365 422ZM12 0 504 750H955V684H591V422H920V356H591V66H955V0H520V356H323L95 0Z" glyph-name="AE" horiz-adv-x="1020" unicode="&#198;" /><glyph d="M320 825 400 1000H495L350 825ZM212 272H458L335 647ZM547 0 478 210H192L123 0H45L310 760H360L625 0Z" glyph-name="Aacute" horiz-adv-x="670" unicode="&#193;" /><glyph d="M335 835Q299 835 271 843.5Q243 852 223 871Q203 890 192 921.5Q181 953 180 1000H221Q223 946 250 920.5Q277 895 335 895Q393 895 420 920.5Q447 946 449 1000H490Q489 953 478 921.5Q467 890 447 871Q427 852 399 843.5Q371 835 335 835ZM212 272H458L335 647ZM547 0 478 210H192L123 0H45L310 760H360L625 0Z" glyph-name="Abreve" horiz-adv-x="670" unicode="&#258;" /><glyph d="M470 825 335 941 200 825H170L295 1000H375L500 825ZM212 272H458L335 647ZM547 0 478 210H192L123 0H45L310 760H360L625 0Z" glyph-name="Acircumflex" horiz-adv-x="670" unicode="&#194;" /><glyph d="M490 935Q490 912 474 896Q458 880 435 880Q412 880 396 896Q380 912 380 935Q380 958 396 974Q412 990 435 990Q458 990 474 974Q490 958 490 935ZM235 880Q212 880 196 896Q180 912 180 935Q180 958 196 974Q212 990 235 990Q258 990 274 974Q290 958 290 935Q290 912 274 896Q258 880 235 880ZM212 272H458L335 647ZM547 0 478 210H192L123 0H45L310 760H360L625 0Z" glyph-name="Adieresis" horiz-adv-x="670" unicode="&#196;" /><glyph d="M320 825 175 1000H270L350 825ZM212 272H458L335 647ZM547 0 478 210H192L123 0H45L310 760H360L625 0Z" glyph-name="Agrave" horiz-adv-x="670" unicode="&#192;" /><glyph d="M198 930V995H472V930ZM212 272H458L335 647ZM547 0 478 210H192L123 0H45L310 760H360L625 0Z" glyph-name="Amacron" horiz-adv-x="670" unicode="&#256;" /><glyph d="M212 272H458L335 647ZM625 0Q576 -20 547.5 -51.5Q519 -83 519 -122Q519 -145 531.5 -162Q544 -179 573 -179Q590 -179 604.5 -176.5Q619 -174 630 -171V-219Q617 -224 599 -227Q581 -230 559 -230Q514 -230 486 -205Q458 -180 458 -135Q458 -46 546 1L478 210H192L123 0H45L310 760H360Z" glyph-name="Aogonek" horiz-adv-x="670" unicode="&#260;" /><glyph d="M383 912Q383 940 370.5 950.5Q358 961 335 961Q312 961 299 950.5Q286 940 286 912Q286 885 299 874.5Q312 864 335 864Q358 864 370.5 874.5Q383 885 383 912ZM433 912Q433 861 406.5 838Q380 815 335 815Q290 815 263 838Q236 861 236 912Q236 964 263 987Q290 1010 335 1010Q380 1010 406.5 987Q433 964 433 912ZM212 272H458L335 647ZM547 0 478 210H192L123 0H45L310 760H360L625 0Z" glyph-name="Aring" horiz-adv-x="670" unicode="&#197;" /><glyph d="M410 909Q429 909 439 914.5Q449 920 453.5 927.5Q458 935 458.5 944Q459 953 459 961L516 960Q520 907 490 878.5Q460 850 406 850Q375 850 356 860.5Q337 871 322.5 883Q308 895 294 905.5Q280 916 259 916Q240 916 230.5 910.5Q221 905 216.5 897.5Q212 890 211.5 880.5Q211 871 211 864L154 865Q150 918 179.5 946.5Q209 975 263 975Q294 975 313 964.5Q332 954 346.5 942Q361 930 375 919.5Q389 909 410 909ZM212 272H458L335 647ZM547 0 478 210H192L123 0H45L310 760H360L625 0Z" glyph-name="Atilde" horiz-adv-x="670" unicode="&#195;" /><glyph d="M481 552Q481 577 475.5 600.5Q470 624 454 642.5Q438 661 409 672.5Q380 684 332 684H161V422H340Q382 422 409.5 433.5Q437 445 453 463Q469 481 475 504.5Q481 528 481 552ZM161 66H338Q391 66 424 78.5Q457 91 475 111.5Q493 132 499.5 158Q506 184 506 211Q506 287 469 321.5Q432 356 340 356H161ZM90 750H327Q393 750 437.5 734.5Q482 719 509 692Q536 665 548 629Q560 593 560 552Q560 503 533.5 459Q507 415 458 394Q490 385 514 367Q538 349 553.5 324Q569 299 577 270Q585 241 585 211Q585 167 572 128.5Q559 90 529.5 61.5Q500 33 452 16.5Q404 0 334 0H90Z" glyph-name="B" horiz-adv-x="645" unicode="B" /><glyph d="M75 375Q75 455 89.5 525Q104 595 138.5 647.5Q173 700 229.5 730Q286 760 370 760Q439 760 486.5 749.5Q534 739 565 725V657Q539 667 516 674.5Q493 682 470 687Q447 692 422.5 694Q398 696 370 696Q308 696 266 671.5Q224 647 198 603.5Q172 560 160.5 501.5Q149 443 149 375Q149 307 160.5 248.5Q172 190 198 146.5Q224 103 266 78.5Q308 54 370 54Q398 54 422.5 56Q447 58 470 63Q493 68 516 75Q539 82 565 93V25Q534 11 486.5 0.5Q439 -10 370 -10Q286 -10 229.5 20Q173 50 138.5 102.5Q104 155 89.5 225Q75 295 75 375Z" glyph-name="C" horiz-adv-x="640" unicode="C" /><glyph d="M356 825 436 1000H531L386 825ZM75 375Q75 455 89.5 525Q104 595 138.5 647.5Q173 700 229.5 730Q286 760 370 760Q439 760 486.5 749.5Q534 739 565 725V657Q539 667 516 674.5Q493 682 470 687Q447 692 422.5 694Q398 696 370 696Q308 696 266 671.5Q224 647 198 603.5Q172 560 160.5 501.5Q149 443 149 375Q149 307 160.5 248.5Q172 190 198 146.5Q224 103 266 78.5Q308 54 370 54Q398 54 422.5 56Q447 58 470 63Q493 68 516 75Q539 82 565 93V25Q534 11 486.5 0.5Q439 -10 370 -10Q286 -10 229.5 20Q173 50 138.5 102.5Q104 155 89.5 225Q75 295 75 375Z" glyph-name="Cacute" horiz-adv-x="640" unicode="&#262;" /><glyph d="M525 1000 400 825H320L195 1000H245L360 884L475 1000ZM75 375Q75 455 89.5 525Q104 595 138.5 647.5Q173 700 229.5 730Q286 760 370 760Q439 760 486.5 749.5Q534 739 565 725V657Q539 667 516 674.5Q493 682 470 687Q447 692 422.5 694Q398 696 370 696Q308 696 266 671.5Q224 647 198 603.5Q172 560 160.5 501.5Q149 443 149 375Q149 307 160.5 248.5Q172 190 198 146.5Q224 103 266 78.5Q308 54 370 54Q398 54 422.5 56Q447 58 470 63Q493 68 516 75Q539 82 565 93V25Q534 11 486.5 0.5Q439 -10 370 -10Q286 -10 229.5 20Q173 50 138.5 102.5Q104 155 89.5 225Q75 295 75 375Z" glyph-name="Ccaron" horiz-adv-x="640" unicode="&#268;" /><glyph d="M310 -185Q320 -176 329 -165Q338 -154 342.5 -142.5Q347 -131 345.5 -121.5Q344 -112 334 -106Q316 -96 310 -83.5Q304 -71 305.5 -57.5Q307 -44 314 -31Q321 -18 328 -8Q253 -2 203 30Q153 62 122 113Q91 164 78 231.5Q65 299 65 375Q65 455 79.5 525Q94 595 128.5 647.5Q163 700 219.5 730Q276 760 360 760Q429 760 476.5 749.5Q524 739 555 725V657Q529 667 506 674.5Q483 682 460 687Q437 692 412.5 694Q388 696 360 696Q298 696 256 671.5Q214 647 188 603.5Q162 560 150.5 501.5Q139 443 139 375Q139 307 150.5 248.5Q162 190 188 146.5Q214 103 256 78.5Q298 54 360 54Q388 54 412.5 56Q437 58 460 63Q483 68 506 75Q529 82 555 93V25Q526 12 481 2Q436 -8 372 -10Q361 -25 359.5 -41Q358 -57 381 -71Q406 -85 413 -101Q420 -117 417 -133Q414 -149 404.5 -162.5Q395 -176 386 -185Z" glyph-name="Ccedilla" horiz-adv-x="620" unicode="&#199;" /><glyph d="M195 825 320 1000H400L525 825H475L360 941L245 825ZM75 375Q75 455 89.5 525Q104 595 138.5 647.5Q173 700 229.5 730Q286 760 370 760Q439 760 486.5 749.5Q534 739 565 725V657Q539 667 516 674.5Q493 682 470 687Q447 692 422.5 694Q398 696 370 696Q308 696 266 671.5Q224 647 198 603.5Q172 560 160.5 501.5Q149 443 149 375Q149 307 160.5 248.5Q172 190 198 146.5Q224 103 266 78.5Q308 54 370 54Q398 54 422.5 56Q447 58 470 63Q493 68 516 75Q539 82 565 93V25Q534 11 486.5 0.5Q439 -10 370 -10Q286 -10 229.5 20Q173 50 138.5 102.5Q104 155 89.5 225Q75 295 75 375Z" glyph-name="Ccircumflex" horiz-adv-x="640" unicode="&#264;" /><glyph d="M370 880Q347 880 331 896Q315 912 315 935Q315 958 331 974Q347 990 370 990Q393 990 409 974Q425 958 425 935Q425 912 409 896Q393 880 370 880ZM75 375Q75 455 89.5 525Q104 595 138.5 647.5Q173 700 229.5 730Q286 760 370 760Q439 760 486.5 749.5Q534 739 565 725V657Q539 667 516 674.5Q493 682 470 687Q447 692 422.5 694Q398 696 370 696Q308 696 266 671.5Q224 647 198 603.5Q172 560 160.5 501.5Q149 443 149 375Q149 307 160.5 248.5Q172 190 198 146.5Q224 103 266 78.5Q308 54 370 54Q398 54 422.5 56Q447 58 470 63Q493 68 516 75Q539 82 565 93V25Q534 11 486.5 0.5Q439 -10 370 -10Q286 -10 229.5 20Q173 50 138.5 102.5Q104 155 89.5 225Q75 295 75 375Z" glyph-name="Cdotaccent" horiz-adv-x="640" unicode="&#266;" /><glyph d="M161 66H298Q365 66 410.5 89Q456 112 483 153Q510 194 521.5 250.5Q533 307 533 375Q533 442 521.5 499Q510 556 483 597Q456 638 410.5 661Q365 684 298 684H161ZM90 0V750H294Q386 750 447 721.5Q508 693 544 642.5Q580 592 595 523.5Q610 455 610 375Q610 295 595 226.5Q580 158 544 107.5Q508 57 447 28.5Q386 0 294 0Z" glyph-name="D" horiz-adv-x="685" unicode="D" /><glyph d="M507 1000 382 825H302L177 1000H207L342 884L477 1000ZM161 66H298Q365 66 410.5 89Q456 112 483 153Q510 194 521.5 250.5Q533 307 533 375Q533 442 521.5 499Q510 556 483 597Q456 638 410.5 661Q365 684 298 684H161ZM90 0V750H294Q386 750 447 721.5Q508 693 544 642.5Q580 592 595 523.5Q610 455 610 375Q610 295 595 226.5Q580 158 544 107.5Q508 57 447 28.5Q386 0 294 0Z" glyph-name="Dcaron" horiz-adv-x="685" unicode="&#270;" /><glyph d="M191 416H371V361H191V66H328Q395 66 440.5 89Q486 112 513 153Q540 194 551.5 250.5Q563 307 563 375Q563 442 551.5 499Q540 556 513 597Q486 638 440.5 661Q395 684 328 684H191ZM120 416V750H324Q416 750 477 721.5Q538 693 574 642.5Q610 592 625 523.5Q640 455 640 375Q640 295 625 226.5Q610 158 574 107.5Q538 57 477 28.5Q416 0 324 0H120V361H30V416Z" glyph-name="Dcroat" horiz-adv-x="715" unicode="&#272;" /><glyph d="M70 250Q70 304 90.5 351.5Q111 399 146 434Q181 469 228.5 489.5Q276 510 330 510Q384 510 431.5 489.5Q479 469 514 434Q549 399 569.5 351.5Q590 304 590 250Q590 196 569.5 148.5Q549 101 514 66Q479 31 431.5 10.5Q384 -10 330 -10Q276 -10 228.5 10.5Q181 31 146 66Q111 101 90.5 148.5Q70 196 70 250Z" glyph-name="Delta" horiz-adv-x="660" unicode="&#8710;" /><glyph d="M490 356H161V66H525V0H90V750H525V684H161V422H490Z" glyph-name="E" horiz-adv-x="600" unicode="E" /><glyph d="M293 825 373 1000H468L323 825ZM490 356H161V66H525V0H90V750H525V684H161V422H490Z" glyph-name="Eacute" horiz-adv-x="600" unicode="&#201;" /><glyph d="M300 835Q264 835 236 843.5Q208 852 188 871Q168 890 157 921.5Q146 953 145 1000H186Q188 946 215 920.5Q242 895 300 895Q358 895 385 920.5Q412 946 414 1000H455Q454 953 443 921.5Q432 890 412 871Q392 852 364 843.5Q336 835 300 835ZM490 356H161V66H525V0H90V750H525V684H161V422H490Z" glyph-name="Ebreve" horiz-adv-x="600" unicode="&#276;" /><glyph d="M173 1000 308 884 443 1000H473L348 825H268L143 1000ZM490 356H161V66H525V0H90V750H525V684H161V422H490Z" glyph-name="Ecaron" horiz-adv-x="600" unicode="&#282;" /><glyph d="M443 825 308 941 173 825H143L268 1000H348L473 825ZM490 356H161V66H525V0H90V750H525V684H161V422H490Z" glyph-name="Ecircumflex" horiz-adv-x="600" unicode="&#202;" /><glyph d="M463 935Q463 912 447 896Q431 880 408 880Q385 880 369 896Q353 912 353 935Q353 958 369 974Q385 990 408 990Q431 990 447 974Q463 958 463 935ZM208 880Q185 880 169 896Q153 912 153 935Q153 958 169 974Q185 990 208 990Q231 990 247 974Q263 958 263 935Q263 912 247 896Q231 880 208 880ZM490 356H161V66H525V0H90V750H525V684H161V422H490Z" glyph-name="Edieresis" horiz-adv-x="600" unicode="&#203;" /><glyph d="M300 880Q277 880 261 896Q245 912 245 935Q245 958 261 974Q277 990 300 990Q323 990 339 974Q355 958 355 935Q355 912 339 896Q323 880 300 880ZM490 356H161V66H525V0H90V750H525V684H161V422H490Z" glyph-name="Edotaccent" horiz-adv-x="600" unicode="&#278;" /><glyph d="M293 825 148 1000H243L323 825ZM490 356H161V66H525V0H90V750H525V684H161V422H490Z" glyph-name="Egrave" horiz-adv-x="600" unicode="&#200;" /><glyph d="M163 930V995H437V930ZM490 356H161V66H525V0H90V750H525V684H161V422H490Z" glyph-name="Emacron" horiz-adv-x="600" unicode="&#274;" /><glyph d="M610 -96Q610 -135 592.5 -165Q575 -195 547 -215.5Q519 -236 484.5 -247Q450 -258 416 -260V-201Q438 -198 461 -190.5Q484 -183 502.5 -169.5Q521 -156 533 -136Q545 -116 545 -87V21L156 608L158 0H90V750H141L544 142L542 750H610Z" glyph-name="Eng" horiz-adv-x="700" unicode="&#330;" /><glyph d="M490 356H161V66H525V0Q476 -20 447.5 -51.5Q419 -83 419 -122Q419 -145 431.5 -162Q444 -179 473 -179Q490 -179 504.5 -176.5Q519 -174 530 -171V-219Q517 -224 499 -227Q481 -230 459 -230Q414 -230 386 -205Q358 -180 358 -135Q358 -47 445 0H90V750H525V684H161V422H490Z" glyph-name="Eogonek" horiz-adv-x="600" unicode="&#280;" /><glyph d="M191 416H371V361H191V66H328Q395 66 440.5 89Q486 112 513 153Q540 194 551.5 250.5Q563 307 563 375Q563 442 551.5 499Q540 556 513 597Q486 638 440.5 661Q395 684 328 684H191ZM120 416V750H324Q416 750 477 721.5Q538 693 574 642.5Q610 592 625 523.5Q640 455 640 375Q640 295 625 226.5Q610 158 574 107.5Q538 57 477 28.5Q416 0 324 0H120V361H30V416Z" glyph-name="Eth" horiz-adv-x="715" unicode="&#208;" /><glyph d="M60 418V484H124Q129 548 144 599Q159 650 188 686Q217 722 262.5 741Q308 760 375 760Q412 760 456.5 753Q501 746 534 732V672Q505 682 467 690Q429 698 375 698Q328 698 295.5 683Q263 668 242 640Q221 612 209.5 572.5Q198 533 194 484H473L450 418H190V332H420L397 266H194Q198 217 209.5 177.5Q221 138 242 110Q263 82 295.5 67Q328 52 375 52Q429 52 467 60Q505 68 534 78V18Q501 4 456.5 -3Q412 -10 375 -10Q308 -10 262.5 9Q217 28 188 63.5Q159 99 144 150Q129 201 124 266H60V332H120V418Z" glyph-name="Euro" horiz-adv-x="600" unicode="&#8364;" /><glyph d="M25 349H96Q115 424 169 467Q223 510 321 510Q358 510 397.5 504.5Q437 499 470 485V425Q441 435 407 441.5Q373 448 320 448Q257 448 221.5 420.5Q186 393 170 349H398L375 283H156Q155 275 155 266.5Q155 258 155 250Q155 242 155 233.5Q155 225 156 217H352L329 151H170Q186 106 221.5 79Q257 52 320 52Q373 52 407 58.5Q441 65 470 75V15Q437 1 397.5 -4.5Q358 -10 321 -10Q223 -10 169 33Q115 76 96 151H25V217H86Q85 225 85 233Q85 241 85 250Q85 258 85 266.5Q85 275 86 283H25Z" glyph-name="Euro.OP" horiz-adv-x="530" /><glyph d="M480 356H161V0H90V750H515V684H161V422H480Z" glyph-name="F" horiz-adv-x="580" unicode="F" /><glyph d="M370 -10Q286 -10 229.5 20Q173 50 138.5 102.5Q104 155 89.5 225Q75 295 75 375Q75 455 89.5 525Q104 595 138.5 647.5Q173 700 229.5 730Q286 760 370 760Q448 760 498.5 747Q549 734 580 718V649Q551 661 526 670Q501 679 476.5 684.5Q452 690 426 693Q400 696 370 696Q308 696 266 671.5Q224 647 198 603.5Q172 560 160.5 501.5Q149 443 149 375Q149 307 160.5 248.5Q172 190 198 146.5Q224 103 266 78.5Q308 54 370 54Q391 54 414 55Q437 56 458 58.5Q479 61 497.5 65.5Q516 70 529 76V328H375V394H600V31Q562 13 505.5 1.5Q449 -10 370 -10Z" glyph-name="G" horiz-adv-x="690" unicode="G" /><glyph d="M370 835Q334 835 306 843.5Q278 852 258 871Q238 890 227 921.5Q216 953 215 1000H256Q258 946 285 920.5Q312 895 370 895Q428 895 455 920.5Q482 946 484 1000H525Q524 953 513 921.5Q502 890 482 871Q462 852 434 843.5Q406 835 370 835ZM370 -10Q286 -10 229.5 20Q173 50 138.5 102.5Q104 155 89.5 225Q75 295 75 375Q75 455 89.5 525Q104 595 138.5 647.5Q173 700 229.5 730Q286 760 370 760Q448 760 498.5 747Q549 734 580 718V649Q551 661 526 670Q501 679 476.5 684.5Q452 690 426 693Q400 696 370 696Q308 696 266 671.5Q224 647 198 603.5Q172 560 160.5 501.5Q149 443 149 375Q149 307 160.5 248.5Q172 190 198 146.5Q224 103 266 78.5Q308 54 370 54Q391 54 414 55Q437 56 458 58.5Q479 61 497.5 65.5Q516 70 529 76V328H375V394H600V31Q562 13 505.5 1.5Q449 -10 370 -10Z" glyph-name="Gbreve" horiz-adv-x="690" unicode="&#286;" /><glyph d="M505 825 370 941 235 825H205L330 1000H410L535 825ZM370 -10Q286 -10 229.5 20Q173 50 138.5 102.5Q104 155 89.5 225Q75 295 75 375Q75 455 89.5 525Q104 595 138.5 647.5Q173 700 229.5 730Q286 760 370 760Q448 760 498.5 747Q549 734 580 718V649Q551 661 526 670Q501 679 476.5 684.5Q452 690 426 693Q400 696 370 696Q308 696 266 671.5Q224 647 198 603.5Q172 560 160.5 501.5Q149 443 149 375Q149 307 160.5 248.5Q172 190 198 146.5Q224 103 266 78.5Q308 54 370 54Q391 54 414 55Q437 56 458 58.5Q479 61 497.5 65.5Q516 70 529 76V328H375V394H600V31Q562 13 505.5 1.5Q449 -10 370 -10Z" glyph-name="Gcircumflex" horiz-adv-x="690" unicode="&#284;" /><glyph d="M330 -250 348 -170Q332 -164 323.5 -150.5Q315 -137 315 -120Q315 -97 331 -81Q347 -65 370 -65Q393 -65 409 -81Q425 -97 425 -120Q425 -135 419 -147L372 -250ZM370 -10Q286 -10 229.5 20Q173 50 138.5 102.5Q104 155 89.5 225Q75 295 75 375Q75 455 89.5 525Q104 595 138.5 647.5Q173 700 229.5 730Q286 760 370 760Q448 760 498.5 747Q549 734 580 718V649Q551 661 526 670Q501 679 476.5 684.5Q452 690 426 693Q400 696 370 696Q308 696 266 671.5Q224 647 198 603.5Q172 560 160.5 501.5Q149 443 149 375Q149 307 160.5 248.5Q172 190 198 146.5Q224 103 266 78.5Q308 54 370 54Q391 54 414 55Q437 56 458 58.5Q479 61 497.5 65.5Q516 70 529 76V328H375V394H600V31Q562 13 505.5 1.5Q449 -10 370 -10Z" glyph-name="Gcommaaccent" horiz-adv-x="690" unicode="&#290;" /><glyph d="M370 880Q347 880 331 896Q315 912 315 935Q315 958 331 974Q347 990 370 990Q393 990 409 974Q425 958 425 935Q425 912 409 896Q393 880 370 880ZM370 -10Q286 -10 229.5 20Q173 50 138.5 102.5Q104 155 89.5 225Q75 295 75 375Q75 455 89.5 525Q104 595 138.5 647.5Q173 700 229.5 730Q286 760 370 760Q448 760 498.5 747Q549 734 580 718V649Q551 661 526 670Q501 679 476.5 684.5Q452 690 426 693Q400 696 370 696Q308 696 266 671.5Q224 647 198 603.5Q172 560 160.5 501.5Q149 443 149 375Q149 307 160.5 248.5Q172 190 198 146.5Q224 103 266 78.5Q308 54 370 54Q391 54 414 55Q437 56 458 58.5Q479 61 497.5 65.5Q516 70 529 76V328H375V394H600V31Q562 13 505.5 1.5Q449 -10 370 -10Z" glyph-name="Gdotaccent" horiz-adv-x="690" unicode="&#288;" /><glyph d="M529 0V356H161V0H90V750H161V422H529V750H600V0Z" glyph-name="H" horiz-adv-x="690" unicode="H" /><glyph d="M529 422V540H161V422ZM529 0V356H161V0H90V750H161V606H529V750H600V0Z" glyph-name="Hbar" horiz-adv-x="690" unicode="&#294;" /><glyph d="M480 825 345 941 210 825H180L305 1000H385L510 825ZM529 0V356H161V0H90V750H161V422H529V750H600V0Z" glyph-name="Hcircumflex" horiz-adv-x="690" unicode="&#292;" /><glyph d="M112 0V750H183V0Z" glyph-name="I" horiz-adv-x="295" unicode="I" /><glyph d="M295 61Q313 56 327.5 54.5Q342 53 365 53Q414 53 444 71Q474 89 474 138V750H545V140Q545 68 502 29Q459 -10 365 -10Q349 -10 329.5 -8.5Q310 -7 295 -3ZM112 0V750H183V0Z" glyph-name="IJ" horiz-adv-x="655" unicode="&#306;" /><glyph d="M133 825 213 1000H308L163 825ZM112 0V750H183V0Z" glyph-name="Iacute" horiz-adv-x="295" unicode="&#205;" /><glyph d="M148 835Q112 835 84 843.5Q56 852 36 871Q16 890 5 921.5Q-6 953 -7 1000H34Q36 946 63 920.5Q90 895 148 895Q206 895 233 920.5Q260 946 262 1000H303Q302 953 291 921.5Q280 890 260 871Q240 852 212 843.5Q184 835 148 835ZM112 0V750H183V0Z" glyph-name="Ibreve" horiz-adv-x="295" unicode="&#300;" /><glyph d="M283 825 148 941 13 825H-17L108 1000H188L313 825ZM112 0V750H183V0Z" glyph-name="Icircumflex" horiz-adv-x="295" unicode="&#206;" /><glyph d="M303 935Q303 912 287 896Q271 880 248 880Q225 880 209 896Q193 912 193 935Q193 958 209 974Q225 990 248 990Q271 990 287 974Q303 958 303 935ZM48 880Q25 880 9 896Q-7 912 -7 935Q-7 958 9 974Q25 990 48 990Q71 990 87 974Q103 958 103 935Q103 912 87 896Q71 880 48 880ZM112 0V750H183V0Z" glyph-name="Idieresis" horiz-adv-x="295" unicode="&#207;" /><glyph d="M148 880Q125 880 109 896Q93 912 93 935Q93 958 109 974Q125 990 148 990Q171 990 187 974Q203 958 203 935Q203 912 187 896Q171 880 148 880ZM112 0V750H183V0Z" glyph-name="Idotaccent" horiz-adv-x="295" unicode="&#304;" /><glyph d="M133 825 -12 1000H83L163 825ZM112 0V750H183V0Z" glyph-name="Igrave" horiz-adv-x="295" unicode="&#204;" /><glyph d="M11 930V995H285V930ZM112 0V750H183V0Z" glyph-name="Imacron" horiz-adv-x="295" unicode="&#298;" /><glyph d="M183 0Q170 -10 156.5 -23Q143 -36 132 -51.5Q121 -67 114 -85Q107 -103 107 -122Q107 -145 119.5 -162Q132 -179 161 -179Q178 -179 192.5 -176.5Q207 -174 218 -171V-219Q205 -224 187 -227Q169 -230 147 -230Q102 -230 74 -205Q46 -180 46 -135Q46 -90 66 -56Q86 -22 112 1V750H183Z" glyph-name="Iogonek" horiz-adv-x="295" unicode="&#302;" /><glyph d="M222 909Q241 909 251 914.5Q261 920 265.5 927.5Q270 935 270.5 944Q271 953 271 961L328 960Q332 907 302 878.5Q272 850 218 850Q187 850 168 860.5Q149 871 134.5 883Q120 895 106 905.5Q92 916 71 916Q52 916 42.5 910.5Q33 905 28.5 897.5Q24 890 23.5 880.5Q23 871 23 864L-34 865Q-38 918 -8.5 946.5Q21 975 75 975Q106 975 125 964.5Q144 954 158.5 942Q173 930 187 919.5Q201 909 222 909ZM112 0V750H183V0Z" glyph-name="Itilde" horiz-adv-x="295" unicode="&#296;" /><glyph d="M50 61Q68 56 82.5 54.5Q97 53 120 53Q169 53 199 71Q229 89 229 138V750H300V140Q300 68 257 29Q214 -10 120 -10Q104 -10 84.5 -8.5Q65 -7 50 -3Z" glyph-name="J" horiz-adv-x="410" unicode="J" /><glyph d="M400 825 265 941 130 825H100L225 1000H305L430 825ZM50 61Q68 56 82.5 54.5Q97 53 120 53Q169 53 199 71Q229 89 229 138V750H300V140Q300 68 257 29Q214 -10 120 -10Q104 -10 84.5 -8.5Q65 -7 50 -3Z" glyph-name="Jcircumflex" horiz-adv-x="410" unicode="&#308;" /><glyph d="M159 288V0H90V750H159V376L468 750H560L268 414L590 0H497L224 363Z" glyph-name="K" horiz-adv-x="625" unicode="K" /><glyph d="M264 -250 282 -170Q266 -164 257.5 -150.5Q249 -137 249 -120Q249 -97 265 -81Q281 -65 304 -65Q327 -65 343 -81Q359 -97 359 -120Q359 -135 353 -147L306 -250ZM159 288V0H90V750H159V376L468 750H560L268 414L590 0H497L224 363Z" glyph-name="Kcommaaccent" horiz-adv-x="625" unicode="&#310;" /><glyph d="M161 66H505V0H90V750H161Z" glyph-name="L" horiz-adv-x="560" unicode="L" /><glyph d="M111 825 191 1000H286L141 825ZM161 66H505V0H90V750H161Z" glyph-name="Lacute" horiz-adv-x="560" unicode="&#313;" /><glyph d="M335 750 287 550H241L257 750ZM161 66H505V0H90V750H161Z" glyph-name="Lcaron" horiz-adv-x="560" unicode="&#317;" /><glyph d="M258 -251 276 -171Q260 -165 251.5 -151.5Q243 -138 243 -121Q243 -98 259 -82Q275 -66 298 -66Q321 -66 337 -82Q353 -98 353 -121Q353 -136 347 -148L300 -251ZM161 66H505V0H90V750H161Z" glyph-name="Lcommaaccent" horiz-adv-x="560" unicode="&#315;" /><glyph d="M339 375Q339 396 353.5 410.5Q368 425 389 425Q410 425 424.5 410.5Q439 396 439 375Q439 354 424.5 339.5Q410 325 389 325Q368 325 353.5 339.5Q339 354 339 375ZM161 66H505V0H90V750H161Z" glyph-name="Ldot" horiz-adv-x="560" unicode="&#319;" /><glyph d="M191 386 395 510V447L191 323V66H535V0H120V280L20 219V282L120 343V750H191Z" glyph-name="Lslash" horiz-adv-x="590" unicode="&#321;" /><glyph d="M463 115H407L154 661L158 0H90V750H181L435 205L689 750H780V0H712L716 661Z" glyph-name="M" horiz-adv-x="870" unicode="M" /><glyph d="M559 0 156 608 158 0H90V750H141L544 142L542 750H610V0Z" glyph-name="N" horiz-adv-x="700" unicode="N" /><glyph d="M323 825 403 1000H498L373 825ZM559 0 156 608 158 0H90V750H141L544 142L542 750H610V0Z" glyph-name="Nacute" horiz-adv-x="700" unicode="&#323;" /><glyph d="M515 1000 390 825H310L185 1000H215L350 884L485 1000ZM559 0 156 608 158 0H90V750H141L544 142L542 750H610V0Z" glyph-name="Ncaron" horiz-adv-x="700" unicode="&#327;" /><glyph d="M310 -251 328 -171Q312 -165 303.5 -151.5Q295 -138 295 -121Q295 -98 311 -82Q327 -66 350 -66Q373 -66 389 -82Q405 -98 405 -121Q405 -136 399 -148L352 -251ZM559 0 156 608 158 0H90V750H141L544 142L542 750H610V0Z" glyph-name="Ncommaaccent" horiz-adv-x="700" unicode="&#325;" /><glyph d="M425 909Q444 909 454 914.5Q464 920 468.5 927.5Q473 935 473.5 944Q474 953 474 961L531 960Q535 907 505 878.5Q475 850 421 850Q390 850 371 860.5Q352 871 337.5 883Q323 895 309 905.5Q295 916 274 916Q255 916 245.5 910.5Q236 905 231.5 897.5Q227 890 226.5 880.5Q226 871 226 864L169 865Q165 918 194.5 946.5Q224 975 278 975Q309 975 328 964.5Q347 954 361.5 942Q376 930 390 919.5Q404 909 425 909ZM559 0 156 608 158 0H90V750H141L544 142L542 750H610V0Z" glyph-name="Ntilde" horiz-adv-x="700" unicode="&#209;" /><glyph d="M561 375Q561 440 554.5 498.5Q548 557 526 601Q504 645 463.5 670.5Q423 696 355 696Q287 696 246.5 670.5Q206 645 184 601Q162 557 155.5 498.5Q149 440 149 375Q149 310 155.5 251.5Q162 193 184 149Q206 105 246.5 79.5Q287 54 355 54Q423 54 463.5 79.5Q504 105 526 149Q548 193 554.5 251.5Q561 310 561 375ZM635 375Q635 301 626 232Q617 163 587.5 109Q558 55 503 22.5Q448 -10 355 -10Q263 -10 208 22.5Q153 55 123.5 109Q94 163 84.5 232Q75 301 75 375Q75 448 84.5 517.5Q94 587 123.5 641Q153 695 208 727.5Q263 760 355 760Q448 760 503 727.5Q558 695 587.5 641Q617 587 626 517.5Q635 448 635 375Z" glyph-name="O" horiz-adv-x="710" unicode="O" /><glyph d="M439 684H377Q309 684 264 661Q219 638 192 597Q165 556 153.5 499Q142 442 142 375Q142 307 153.5 250.5Q165 194 192 153Q219 112 264 89Q309 66 377 66H439ZM800 356H510V66H835V0H381Q289 0 228 28.5Q167 57 131 107.5Q95 158 80 226.5Q65 295 65 375Q65 455 80 523.5Q95 592 131 642.5Q167 693 228 721.5Q289 750 381 750H835V684H510V422H800Z" glyph-name="OE" horiz-adv-x="900" unicode="&#338;" /><glyph d="M340 825 420 1000H515L370 825ZM561 375Q561 440 554.5 498.5Q548 557 526 601Q504 645 463.5 670.5Q423 696 355 696Q287 696 246.5 670.5Q206 645 184 601Q162 557 155.5 498.5Q149 440 149 375Q149 310 155.5 251.5Q162 193 184 149Q206 105 246.5 79.5Q287 54 355 54Q423 54 463.5 79.5Q504 105 526 149Q548 193 554.5 251.5Q561 310 561 375ZM635 375Q635 301 626 232Q617 163 587.5 109Q558 55 503 22.5Q448 -10 355 -10Q263 -10 208 22.5Q153 55 123.5 109Q94 163 84.5 232Q75 301 75 375Q75 448 84.5 517.5Q94 587 123.5 641Q153 695 208 727.5Q263 760 355 760Q448 760 503 727.5Q558 695 587.5 641Q617 587 626 517.5Q635 448 635 375Z" glyph-name="Oacute" horiz-adv-x="710" unicode="&#211;" /><glyph d="M355 835Q319 835 291 843.5Q263 852 243 871Q223 890 212 921.5Q201 953 200 1000H241Q243 946 270 920.5Q297 895 355 895Q413 895 440 920.5Q467 946 469 1000H510Q509 953 498 921.5Q487 890 467 871Q447 852 419 843.5Q391 835 355 835ZM561 375Q561 440 554.5 498.5Q548 557 526 601Q504 645 463.5 670.5Q423 696 355 696Q287 696 246.5 670.5Q206 645 184 601Q162 557 155.5 498.5Q149 440 149 375Q149 310 155.5 251.5Q162 193 184 149Q206 105 246.5 79.5Q287 54 355 54Q423 54 463.5 79.5Q504 105 526 149Q548 193 554.5 251.5Q561 310 561 375ZM635 375Q635 301 626 232Q617 163 587.5 109Q558 55 503 22.5Q448 -10 355 -10Q263 -10 208 22.5Q153 55 123.5 109Q94 163 84.5 232Q75 301 75 375Q75 448 84.5 517.5Q94 587 123.5 641Q153 695 208 727.5Q263 760 355 760Q448 760 503 727.5Q558 695 587.5 641Q617 587 626 517.5Q635 448 635 375Z" glyph-name="Obreve" horiz-adv-x="710" unicode="&#334;" /><glyph d="M490 825 355 941 220 825H190L315 1000H395L520 825ZM561 375Q561 440 554.5 498.5Q548 557 526 601Q504 645 463.5 670.5Q423 696 355 696Q287 696 246.5 670.5Q206 645 184 601Q162 557 155.5 498.5Q149 440 149 375Q149 310 155.5 251.5Q162 193 184 149Q206 105 246.5 79.5Q287 54 355 54Q423 54 463.5 79.5Q504 105 526 149Q548 193 554.5 251.5Q561 310 561 375ZM635 375Q635 301 626 232Q617 163 587.5 109Q558 55 503 22.5Q448 -10 355 -10Q263 -10 208 22.5Q153 55 123.5 109Q94 163 84.5 232Q75 301 75 375Q75 448 84.5 517.5Q94 587 123.5 641Q153 695 208 727.5Q263 760 355 760Q448 760 503 727.5Q558 695 587.5 641Q617 587 626 517.5Q635 448 635 375Z" glyph-name="Ocircumflex" horiz-adv-x="710" unicode="&#212;" /><glyph d="M510 935Q510 912 494 896Q478 880 455 880Q432 880 416 896Q400 912 400 935Q400 958 416 974Q432 990 455 990Q478 990 494 974Q510 958 510 935ZM255 880Q232 880 216 896Q200 912 200 935Q200 958 216 974Q232 990 255 990Q278 990 294 974Q310 958 310 935Q310 912 294 896Q278 880 255 880ZM561 375Q561 440 554.5 498.5Q548 557 526 601Q504 645 463.5 670.5Q423 696 355 696Q287 696 246.5 670.5Q206 645 184 601Q162 557 155.5 498.5Q149 440 149 375Q149 310 155.5 251.5Q162 193 184 149Q206 105 246.5 79.5Q287 54 355 54Q423 54 463.5 79.5Q504 105 526 149Q548 193 554.5 251.5Q561 310 561 375ZM635 375Q635 301 626 232Q617 163 587.5 109Q558 55 503 22.5Q448 -10 355 -10Q263 -10 208 22.5Q153 55 123.5 109Q94 163 84.5 232Q75 301 75 375Q75 448 84.5 517.5Q94 587 123.5 641Q153 695 208 727.5Q263 760 355 760Q448 760 503 727.5Q558 695 587.5 641Q617 587 626 517.5Q635 448 635 375Z" glyph-name="Odieresis" horiz-adv-x="710" unicode="&#214;" /><glyph d="M340 825 195 1000H290L370 825ZM561 375Q561 440 554.5 498.5Q548 557 526 601Q504 645 463.5 670.5Q423 696 355 696Q287 696 246.5 670.5Q206 645 184 601Q162 557 155.5 498.5Q149 440 149 375Q149 310 155.5 251.5Q162 193 184 149Q206 105 246.5 79.5Q287 54 355 54Q423 54 463.5 79.5Q504 105 526 149Q548 193 554.5 251.5Q561 310 561 375ZM635 375Q635 301 626 232Q617 163 587.5 109Q558 55 503 22.5Q448 -10 355 -10Q263 -10 208 22.5Q153 55 123.5 109Q94 163 84.5 232Q75 301 75 375Q75 448 84.5 517.5Q94 587 123.5 641Q153 695 208 727.5Q263 760 355 760Q448 760 503 727.5Q558 695 587.5 641Q617 587 626 517.5Q635 448 635 375Z" glyph-name="Ograve" horiz-adv-x="710" unicode="&#210;" /><glyph d="M265 825 345 1000H440L295 825ZM415 825 495 1000H590L445 825ZM561 375Q561 440 554.5 498.5Q548 557 526 601Q504 645 463.5 670.5Q423 696 355 696Q287 696 246.5 670.5Q206 645 184 601Q162 557 155.5 498.5Q149 440 149 375Q149 310 155.5 251.5Q162 193 184 149Q206 105 246.5 79.5Q287 54 355 54Q423 54 463.5 79.5Q504 105 526 149Q548 193 554.5 251.5Q561 310 561 375ZM635 375Q635 301 626 232Q617 163 587.5 109Q558 55 503 22.5Q448 -10 355 -10Q263 -10 208 22.5Q153 55 123.5 109Q94 163 84.5 232Q75 301 75 375Q75 448 84.5 517.5Q94 587 123.5 641Q153 695 208 727.5Q263 760 355 760Q448 760 503 727.5Q558 695 587.5 641Q617 587 626 517.5Q635 448 635 375Z" glyph-name="Ohungarumlaut" horiz-adv-x="710" unicode="&#336;" /><glyph d="M218 930V995H492V930ZM561 375Q561 440 554.5 498.5Q548 557 526 601Q504 645 463.5 670.5Q423 696 355 696Q287 696 246.5 670.5Q206 645 184 601Q162 557 155.5 498.5Q149 440 149 375Q149 310 155.5 251.5Q162 193 184 149Q206 105 246.5 79.5Q287 54 355 54Q423 54 463.5 79.5Q504 105 526 149Q548 193 554.5 251.5Q561 310 561 375ZM635 375Q635 301 626 232Q617 163 587.5 109Q558 55 503 22.5Q448 -10 355 -10Q263 -10 208 22.5Q153 55 123.5 109Q94 163 84.5 232Q75 301 75 375Q75 448 84.5 517.5Q94 587 123.5 641Q153 695 208 727.5Q263 760 355 760Q448 760 503 727.5Q558 695 587.5 641Q617 587 626 517.5Q635 448 635 375Z" glyph-name="Omacron" horiz-adv-x="710" unicode="&#332;" /><glyph d="M211 423Q245 423 267.5 426.5Q290 430 311 435V376Q285 370 261 367.5Q237 365 211 365Q120 365 77.5 415.5Q35 466 35 563Q35 660 77.5 710Q120 760 211 760Q237 760 261 757.5Q285 755 311 749V690Q290 695 267.5 698.5Q245 702 211 702Q154 702 125.5 670Q97 638 97 563Q97 488 125.5 455.5Q154 423 211 423Z" glyph-name="Omega" horiz-adv-x="336" unicode="&#8486;" /><glyph d="M561 375Q561 441 554 499.5Q547 558 525 602L219 100Q242 78 275 66Q308 54 355 54Q423 54 463.5 79.5Q504 105 526 149Q548 193 554.5 251.5Q561 310 561 375ZM149 375Q149 309 155.5 250.5Q162 192 185 147L491 649Q468 672 434.5 684Q401 696 355 696Q287 696 246.5 670.5Q206 645 184 601Q162 557 155.5 498.5Q149 440 149 375ZM143 78Q122 106 108.5 140Q95 174 87.5 212Q80 250 77.5 291.5Q75 333 75 375Q75 448 84.5 517.5Q94 587 123.5 641Q153 695 208 727.5Q263 760 355 760Q412 760 454.5 747Q497 734 528 711L552 750H615L567 672Q588 644 601.5 610Q615 576 622.5 538Q630 500 632.5 458.5Q635 417 635 375Q635 301 626 232Q617 163 587.5 109Q558 55 503 22.5Q448 -10 355 -10Q297 -10 255 3Q213 16 182 39L158 0H95Z" glyph-name="Oslash" horiz-adv-x="690" unicode="&#216;" /><glyph d="M430 909Q449 909 459 914.5Q469 920 473.5 927.5Q478 935 478.5 944Q479 953 479 961L536 960Q540 907 510 878.5Q480 850 426 850Q395 850 376 860.5Q357 871 342.5 883Q328 895 314 905.5Q300 916 279 916Q260 916 250.5 910.5Q241 905 236.5 897.5Q232 890 231.5 880.5Q231 871 231 864L174 865Q170 918 199.5 946.5Q229 975 283 975Q314 975 333 964.5Q352 954 366.5 942Q381 930 395 919.5Q409 909 430 909ZM561 375Q561 440 554.5 498.5Q548 557 526 601Q504 645 463.5 670.5Q423 696 355 696Q287 696 246.5 670.5Q206 645 184 601Q162 557 155.5 498.5Q149 440 149 375Q149 310 155.5 251.5Q162 193 184 149Q206 105 246.5 79.5Q287 54 355 54Q423 54 463.5 79.5Q504 105 526 149Q548 193 554.5 251.5Q561 310 561 375ZM635 375Q635 301 626 232Q617 163 587.5 109Q558 55 503 22.5Q448 -10 355 -10Q263 -10 208 22.5Q153 55 123.5 109Q94 163 84.5 232Q75 301 75 375Q75 448 84.5 517.5Q94 587 123.5 641Q153 695 208 727.5Q263 760 355 760Q448 760 503 727.5Q558 695 587.5 641Q617 587 626 517.5Q635 448 635 375Z" glyph-name="Otilde" horiz-adv-x="710" unicode="&#213;" /><glyph d="M161 366H323Q376 366 409 380.5Q442 395 460 418.5Q478 442 484.5 470Q491 498 491 525Q491 552 484.5 580Q478 608 460 631.5Q442 655 409 669.5Q376 684 323 684H161ZM161 0H90V750H319Q389 750 437 731.5Q485 713 514.5 681.5Q544 650 557 609.5Q570 569 570 525Q570 481 557 440.5Q544 400 514.5 368.5Q485 337 437 318.5Q389 300 319 300H161Z" glyph-name="P" horiz-adv-x="620" unicode="P" /><glyph d="M558 375Q558 445 551.5 504Q545 563 523.5 605.5Q502 648 462 671.5Q422 695 355 695Q288 695 248 671.5Q208 648 186.5 605.5Q165 563 158.5 504Q152 445 152 375Q152 304 158.5 245.5Q165 187 186.5 144.5Q208 102 248 78.5Q288 55 355 55Q422 55 462 78.5Q502 102 523.5 144.5Q545 187 551.5 245.5Q558 304 558 375ZM438 6 725 -52V-124L263 0Q201 16 164 52.5Q127 89 107.5 139Q88 189 81.5 249.5Q75 310 75 375Q75 455 85 525.5Q95 596 125 648Q155 700 210 730Q265 760 355 760Q446 760 501 730Q556 700 586 648Q616 596 625.5 525.5Q635 455 635 375Q635 305 629 243.5Q623 182 602.5 134Q582 86 543 53Q504 20 438 7Z" glyph-name="Q" horiz-adv-x="710" unicode="Q" /><glyph d="M161 394H339Q389 394 419 405.5Q449 417 465.5 436.5Q482 456 487 482.5Q492 509 492 539Q492 569 487 595.5Q482 622 465.5 641.5Q449 661 419 672.5Q389 684 339 684H161ZM161 0H90V750H325Q395 750 442 735Q489 720 517.5 692.5Q546 665 558 626Q570 587 570 539Q570 464 539.5 412Q509 360 432 340L611 0H521L358 329Q350 328 341.5 328Q333 328 325 328H161Z" glyph-name="R" horiz-adv-x="651" unicode="R" /><glyph d="M300 825 380 1000H475L330 825ZM161 394H339Q389 394 419 405.5Q449 417 465.5 436.5Q482 456 487 482.5Q492 509 492 539Q492 569 487 595.5Q482 622 465.5 641.5Q449 661 419 672.5Q389 684 339 684H161ZM161 0H90V750H325Q395 750 442 735Q489 720 517.5 692.5Q546 665 558 626Q570 587 570 539Q570 464 539.5 412Q509 360 432 340L611 0H521L358 329Q350 328 341.5 328Q333 328 325 328H161Z" glyph-name="Racute" horiz-adv-x="651" unicode="&#340;" /><glyph d="M480 1000 355 825H275L150 1000H180L315 884L450 1000ZM161 394H339Q389 394 419 405.5Q449 417 465.5 436.5Q482 456 487 482.5Q492 509 492 539Q492 569 487 595.5Q482 622 465.5 641.5Q449 661 419 672.5Q389 684 339 684H161ZM161 0H90V750H325Q395 750 442 735Q489 720 517.5 692.5Q546 665 558 626Q570 587 570 539Q570 464 539.5 412Q509 360 432 340L611 0H521L358 329Q350 328 341.5 328Q333 328 325 328H161Z" glyph-name="Rcaron" horiz-adv-x="651" unicode="&#344;" /><glyph d="M275 -250 293 -170Q277 -164 268.5 -150.5Q260 -137 260 -120Q260 -97 276 -81Q292 -65 315 -65Q338 -65 354 -81Q370 -97 370 -120Q370 -135 364 -147L317 -250ZM161 394H339Q389 394 419 405.5Q449 417 465.5 436.5Q482 456 487 482.5Q492 509 492 539Q492 569 487 595.5Q482 622 465.5 641.5Q449 661 419 672.5Q389 684 339 684H161ZM161 0H90V750H325Q395 750 442 735Q489 720 517.5 692.5Q546 665 558 626Q570 587 570 539Q570 464 539.5 412Q509 360 432 340L611 0H521L358 329Q350 328 341.5 328Q333 328 325 328H161Z" glyph-name="Rcommaaccent" horiz-adv-x="651" unicode="&#342;" /><glyph d="M320 696Q264 696 229 684.5Q194 673 174.5 653Q155 633 147.5 606.5Q140 580 140 550Q140 512 152 489Q164 466 187 453Q210 440 244.5 434Q279 428 323 422Q378 415 421.5 401.5Q465 388 495 364.5Q525 341 540.5 305Q556 269 556 216Q556 178 544 138Q532 98 501 65Q470 32 416.5 11Q363 -10 279 -10Q253 -10 223.5 -6.5Q194 -3 165.5 2.5Q137 8 112 15Q87 22 69 30V96Q87 90 107.5 82.5Q128 75 153.5 69Q179 63 210 58.5Q241 54 280 54Q338 54 377 66.5Q416 79 439 101Q462 123 471.5 152.5Q481 182 481 216Q481 254 471.5 278.5Q462 303 441.5 318Q421 333 388.5 341.5Q356 350 309 356Q243 364 197 378.5Q151 393 122.5 416Q94 439 81.5 472Q69 505 69 551Q69 584 79 620.5Q89 657 116.5 688Q144 719 193 739.5Q242 760 321 760Q390 760 437.5 749.5Q485 739 516 725V657Q465 679 420 687.5Q375 696 320 696Z" glyph-name="S" horiz-adv-x="625" unicode="S" /><glyph d="M302 825 382 1000H477L332 825ZM320 696Q264 696 229 684.5Q194 673 174.5 653Q155 633 147.5 606.5Q140 580 140 550Q140 512 152 489Q164 466 187 453Q210 440 244.5 434Q279 428 323 422Q378 415 421.5 401.5Q465 388 495 364.5Q525 341 540.5 305Q556 269 556 216Q556 178 544 138Q532 98 501 65Q470 32 416.5 11Q363 -10 279 -10Q253 -10 223.5 -6.5Q194 -3 165.5 2.5Q137 8 112 15Q87 22 69 30V96Q87 90 107.5 82.5Q128 75 153.5 69Q179 63 210 58.5Q241 54 280 54Q338 54 377 66.5Q416 79 439 101Q462 123 471.5 152.5Q481 182 481 216Q481 254 471.5 278.5Q462 303 441.5 318Q421 333 388.5 341.5Q356 350 309 356Q243 364 197 378.5Q151 393 122.5 416Q94 439 81.5 472Q69 505 69 551Q69 584 79 620.5Q89 657 116.5 688Q144 719 193 739.5Q242 760 321 760Q390 760 437.5 749.5Q485 739 516 725V657Q465 679 420 687.5Q375 696 320 696Z" glyph-name="Sacute" horiz-adv-x="625" unicode="&#346;" /><glyph d="M482 1000 357 825H277L152 1000H202L317 884L432 1000ZM320 696Q264 696 229 684.5Q194 673 174.5 653Q155 633 147.5 606.5Q140 580 140 550Q140 512 152 489Q164 466 187 453Q210 440 244.5 434Q279 428 323 422Q378 415 421.5 401.5Q465 388 495 364.5Q525 341 540.5 305Q556 269 556 216Q556 178 544 138Q532 98 501 65Q470 32 416.5 11Q363 -10 279 -10Q253 -10 223.5 -6.5Q194 -3 165.5 2.5Q137 8 112 15Q87 22 69 30V96Q87 90 107.5 82.5Q128 75 153.5 69Q179 63 210 58.5Q241 54 280 54Q338 54 377 66.5Q416 79 439 101Q462 123 471.5 152.5Q481 182 481 216Q481 254 471.5 278.5Q462 303 441.5 318Q421 333 388.5 341.5Q356 350 309 356Q243 364 197 378.5Q151 393 122.5 416Q94 439 81.5 472Q69 505 69 551Q69 584 79 620.5Q89 657 116.5 688Q144 719 193 739.5Q242 760 321 760Q390 760 437.5 749.5Q485 739 516 725V657Q465 679 420 687.5Q375 696 320 696Z" glyph-name="Scaron" horiz-adv-x="625" unicode="&#352;" /><glyph d="M322 -8Q311 -24 308.5 -40.5Q306 -57 330 -71Q355 -85 362 -101Q369 -117 366 -133Q363 -149 353.5 -162.5Q344 -176 335 -185H259Q269 -176 278 -165Q287 -154 291.5 -142.5Q296 -131 294.5 -121.5Q293 -112 283 -106Q265 -96 259 -83.5Q253 -71 254.5 -58Q256 -45 262.5 -32.5Q269 -20 276 -10Q250 -10 221 -6.5Q192 -3 164 2.5Q136 8 111 15Q86 22 69 30V96Q87 90 107.5 82.5Q128 75 153.5 69Q179 63 210 58.5Q241 54 280 54Q338 54 377 66.5Q416 79 439 101Q462 123 471.5 152.5Q481 182 481 216Q481 254 471.5 278.5Q462 303 441.5 318Q421 333 388.5 341.5Q356 350 309 356Q243 364 197 378.5Q151 393 122.5 416Q94 439 81.5 472Q69 505 69 551Q69 584 79 620.5Q89 657 116.5 688Q144 719 193 739.5Q242 760 321 760Q390 760 437.5 749.5Q485 739 516 725V657Q465 679 420 687.5Q375 696 320 696Q264 696 229 684.5Q194 673 174.5 653Q155 633 147.5 606.5Q140 580 140 550Q140 512 152 489Q164 466 187 453Q210 440 244.5 434Q279 428 323 422Q378 415 421.5 401.5Q465 388 495 364.5Q525 341 540.5 305Q556 269 556 216Q556 180 545.5 142.5Q535 105 509 73.5Q483 42 437.5 19.5Q392 -3 322 -8Z" glyph-name="Scedilla" horiz-adv-x="625" unicode="&#350;" /><glyph d="M452 825 317 941 182 825H152L277 1000H357L482 825ZM320 696Q264 696 229 684.5Q194 673 174.5 653Q155 633 147.5 606.5Q140 580 140 550Q140 512 152 489Q164 466 187 453Q210 440 244.5 434Q279 428 323 422Q378 415 421.5 401.5Q465 388 495 364.5Q525 341 540.5 305Q556 269 556 216Q556 178 544 138Q532 98 501 65Q470 32 416.5 11Q363 -10 279 -10Q253 -10 223.5 -6.5Q194 -3 165.5 2.5Q137 8 112 15Q87 22 69 30V96Q87 90 107.5 82.5Q128 75 153.5 69Q179 63 210 58.5Q241 54 280 54Q338 54 377 66.5Q416 79 439 101Q462 123 471.5 152.5Q481 182 481 216Q481 254 471.5 278.5Q462 303 441.5 318Q421 333 388.5 341.5Q356 350 309 356Q243 364 197 378.5Q151 393 122.5 416Q94 439 81.5 472Q69 505 69 551Q69 584 79 620.5Q89 657 116.5 688Q144 719 193 739.5Q242 760 321 760Q390 760 437.5 749.5Q485 739 516 725V657Q465 679 420 687.5Q375 696 320 696Z" glyph-name="Scircumflex" horiz-adv-x="625" unicode="&#348;" /><glyph d="M248 -250 266 -170Q250 -164 241.5 -150.5Q233 -137 233 -120Q233 -97 249 -81Q265 -65 288 -65Q311 -65 327 -81Q343 -97 343 -120Q343 -135 337 -147L290 -250ZM320 696Q264 696 229 684.5Q194 673 174.5 653Q155 633 147.5 606.5Q140 580 140 550Q140 512 152 489Q164 466 187 453Q210 440 244.5 434Q279 428 323 422Q378 415 421.5 401.5Q465 388 495 364.5Q525 341 540.5 305Q556 269 556 216Q556 178 544 138Q532 98 501 65Q470 32 416.5 11Q363 -10 279 -10Q253 -10 223.5 -6.5Q194 -3 165.5 2.5Q137 8 112 15Q87 22 69 30V96Q87 90 107.5 82.5Q128 75 153.5 69Q179 63 210 58.5Q241 54 280 54Q338 54 377 66.5Q416 79 439 101Q462 123 471.5 152.5Q481 182 481 216Q481 254 471.5 278.5Q462 303 441.5 318Q421 333 388.5 341.5Q356 350 309 356Q243 364 197 378.5Q151 393 122.5 416Q94 439 81.5 472Q69 505 69 551Q69 584 79 620.5Q89 657 116.5 688Q144 719 193 739.5Q242 760 321 760Q390 760 437.5 749.5Q485 739 516 725V657Q465 679 420 687.5Q375 696 320 696Z" glyph-name="Scommaaccent" horiz-adv-x="625" unicode="&#536;" /><glyph d="M328 684V0H257V684H50V750H535V684Z" glyph-name="T" horiz-adv-x="585" unicode="T" /><glyph d="M475 361H328V0H257V361H110V416H257V684H50V750H535V684H328V416H475Z" glyph-name="Tbar" horiz-adv-x="585" unicode="&#358;" /><glyph d="M457 1000 332 825H252L127 1000H157L292 884L427 1000ZM328 684V0H257V684H50V750H535V684Z" glyph-name="Tcaron" horiz-adv-x="585" unicode="&#356;" /><glyph d="M322 1185Q332 1177 343 1159.5Q354 1142 354 1113Q354 1090 342.5 1068Q331 1046 313.5 1028Q296 1010 274 997Q252 984 231 977V1000Q243 1004 253 1016Q263 1028 270.5 1044.5Q278 1061 281.5 1079Q285 1097 284 1114Q282 1140 269.5 1158.5Q257 1177 246 1185ZM253 -250 271 -170Q255 -164 246.5 -150.5Q238 -137 238 -120Q238 -97 254 -81Q270 -65 293 -65Q316 -65 332 -81Q348 -97 348 -120Q348 -135 342 -147L295 -250ZM328 684V0H257V684H50V750H535V684Z" glyph-name="Tcommaaccent" horiz-adv-x="585" unicode="&#354;" /><glyph d="M151 216H313Q366 216 399 230.5Q432 245 450 268.5Q468 292 474.5 320Q481 348 481 375Q481 402 474.5 430Q468 458 450 481.5Q432 505 399 519.5Q366 534 313 534H151ZM151 0H80V750H151V600H309Q379 600 427 581.5Q475 563 504.5 531.5Q534 500 547 459.5Q560 419 560 375Q560 331 547 290.5Q534 250 504.5 218.5Q475 187 427 168.5Q379 150 309 150H151Z" glyph-name="Thorn" horiz-adv-x="600" unicode="&#222;" /><glyph d="M350 55Q375 55 408.5 60Q442 65 472 84Q502 103 523 141.5Q544 180 544 248V750H615V235Q615 182 601.5 143Q588 104 566 77Q544 50 516 33Q488 16 458.5 6.5Q429 -3 400.5 -6.5Q372 -10 350 -10Q316 -10 270.5 -1.5Q225 7 183.5 33Q142 59 113.5 107Q85 155 85 235V750H156V248Q156 180 177 141.5Q198 103 228 84Q258 65 291.5 60Q325 55 350 55Z" glyph-name="U" horiz-adv-x="700" unicode="U" /><glyph d="M335 825 415 1000H510L365 825ZM350 55Q375 55 408.5 60Q442 65 472 84Q502 103 523 141.5Q544 180 544 248V750H615V235Q615 182 601.5 143Q588 104 566 77Q544 50 516 33Q488 16 458.5 6.5Q429 -3 400.5 -6.5Q372 -10 350 -10Q316 -10 270.5 -1.5Q225 7 183.5 33Q142 59 113.5 107Q85 155 85 235V750H156V248Q156 180 177 141.5Q198 103 228 84Q258 65 291.5 60Q325 55 350 55Z" glyph-name="Uacute" horiz-adv-x="700" unicode="&#218;" /><glyph d="M350 835Q314 835 286 843.5Q258 852 238 871Q218 890 207 921.5Q196 953 195 1000H236Q238 946 265 920.5Q292 895 350 895Q408 895 435 920.5Q462 946 464 1000H505Q504 953 493 921.5Q482 890 462 871Q442 852 414 843.5Q386 835 350 835ZM350 55Q375 55 408.5 60Q442 65 472 84Q502 103 523 141.5Q544 180 544 248V750H615V235Q615 182 601.5 143Q588 104 566 77Q544 50 516 33Q488 16 458.5 6.5Q429 -3 400.5 -6.5Q372 -10 350 -10Q316 -10 270.5 -1.5Q225 7 183.5 33Q142 59 113.5 107Q85 155 85 235V750H156V248Q156 180 177 141.5Q198 103 228 84Q258 65 291.5 60Q325 55 350 55Z" glyph-name="Ubreve" horiz-adv-x="700" unicode="&#364;" /><glyph d="M485 825 350 941 215 825H185L310 1000H390L515 825ZM350 55Q375 55 408.5 60Q442 65 472 84Q502 103 523 141.5Q544 180 544 248V750H615V235Q615 182 601.5 143Q588 104 566 77Q544 50 516 33Q488 16 458.5 6.5Q429 -3 400.5 -6.5Q372 -10 350 -10Q316 -10 270.5 -1.5Q225 7 183.5 33Q142 59 113.5 107Q85 155 85 235V750H156V248Q156 180 177 141.5Q198 103 228 84Q258 65 291.5 60Q325 55 350 55Z" glyph-name="Ucircumflex" horiz-adv-x="700" unicode="&#219;" /><glyph d="M505 935Q505 912 489 896Q473 880 450 880Q427 880 411 896Q395 912 395 935Q395 958 411 974Q427 990 450 990Q473 990 489 974Q505 958 505 935ZM250 880Q227 880 211 896Q195 912 195 935Q195 958 211 974Q227 990 250 990Q273 990 289 974Q305 958 305 935Q305 912 289 896Q273 880 250 880ZM350 55Q375 55 408.5 60Q442 65 472 84Q502 103 523 141.5Q544 180 544 248V750H615V235Q615 182 601.5 143Q588 104 566 77Q544 50 516 33Q488 16 458.5 6.5Q429 -3 400.5 -6.5Q372 -10 350 -10Q316 -10 270.5 -1.5Q225 7 183.5 33Q142 59 113.5 107Q85 155 85 235V750H156V248Q156 180 177 141.5Q198 103 228 84Q258 65 291.5 60Q325 55 350 55Z" glyph-name="Udieresis" horiz-adv-x="700" unicode="&#220;" /><glyph d="M335 825 190 1000H285L365 825ZM350 55Q375 55 408.5 60Q442 65 472 84Q502 103 523 141.5Q544 180 544 248V750H615V235Q615 182 601.5 143Q588 104 566 77Q544 50 516 33Q488 16 458.5 6.5Q429 -3 400.5 -6.5Q372 -10 350 -10Q316 -10 270.5 -1.5Q225 7 183.5 33Q142 59 113.5 107Q85 155 85 235V750H156V248Q156 180 177 141.5Q198 103 228 84Q258 65 291.5 60Q325 55 350 55Z" glyph-name="Ugrave" horiz-adv-x="700" unicode="&#217;" /><glyph d="M260 825 340 1000H435L290 825ZM410 825 490 1000H585L440 825ZM350 55Q375 55 408.5 60Q442 65 472 84Q502 103 523 141.5Q544 180 544 248V750H615V235Q615 182 601.5 143Q588 104 566 77Q544 50 516 33Q488 16 458.5 6.5Q429 -3 400.5 -6.5Q372 -10 350 -10Q316 -10 270.5 -1.5Q225 7 183.5 33Q142 59 113.5 107Q85 155 85 235V750H156V248Q156 180 177 141.5Q198 103 228 84Q258 65 291.5 60Q325 55 350 55Z" glyph-name="Uhungarumlaut" horiz-adv-x="700" unicode="&#368;" /><glyph d="M213 930V995H487V930ZM350 55Q375 55 408.5 60Q442 65 472 84Q502 103 523 141.5Q544 180 544 248V750H615V235Q615 182 601.5 143Q588 104 566 77Q544 50 516 33Q488 16 458.5 6.5Q429 -3 400.5 -6.5Q372 -10 350 -10Q316 -10 270.5 -1.5Q225 7 183.5 33Q142 59 113.5 107Q85 155 85 235V750H156V248Q156 180 177 141.5Q198 103 228 84Q258 65 291.5 60Q325 55 350 55Z" glyph-name="Umacron" horiz-adv-x="700" unicode="&#362;" /><glyph d="M350 55Q375 55 408.5 60Q442 65 472 84Q502 103 523 141.5Q544 180 544 248V750H615V235Q615 176 599 135Q583 94 557.5 66.5Q532 39 500 23Q468 7 436 0Q387 -20 358.5 -51.5Q330 -83 330 -122Q330 -145 342.5 -162Q355 -179 384 -179Q401 -179 415.5 -176.5Q430 -174 441 -171V-219Q428 -224 410 -227Q392 -230 370 -230Q325 -230 297 -205Q269 -180 269 -135Q269 -56 339 -10Q316 -9 288 -5Q260 -1 232 9Q204 19 177.5 36.5Q151 54 130.5 81Q110 108 97.5 146Q85 184 85 235V750H156V248Q156 180 177 141.5Q198 103 228 84Q258 65 291.5 60Q325 55 350 55Z" glyph-name="Uogonek" horiz-adv-x="700" unicode="&#370;" /><glyph d="M398 912Q398 940 385.5 950.5Q373 961 350 961Q327 961 314 950.5Q301 940 301 912Q301 885 314 874.5Q327 864 350 864Q373 864 385.5 874.5Q398 885 398 912ZM448 912Q448 861 421.5 838Q395 815 350 815Q305 815 278 838Q251 861 251 912Q251 964 278 987Q305 1010 350 1010Q395 1010 421.5 987Q448 964 448 912ZM350 55Q375 55 408.5 60Q442 65 472 84Q502 103 523 141.5Q544 180 544 248V750H615V235Q615 182 601.5 143Q588 104 566 77Q544 50 516 33Q488 16 458.5 6.5Q429 -3 400.5 -6.5Q372 -10 350 -10Q316 -10 270.5 -1.5Q225 7 183.5 33Q142 59 113.5 107Q85 155 85 235V750H156V248Q156 180 177 141.5Q198 103 228 84Q258 65 291.5 60Q325 55 350 55Z" glyph-name="Uring" horiz-adv-x="700" unicode="&#366;" /><glyph d="M425 909Q444 909 454 914.5Q464 920 468.5 927.5Q473 935 473.5 944Q474 953 474 961L531 960Q535 907 505 878.5Q475 850 421 850Q390 850 371 860.5Q352 871 337.5 883Q323 895 309 905.5Q295 916 274 916Q255 916 245.5 910.5Q236 905 231.5 897.5Q227 890 226.5 880.5Q226 871 226 864L169 865Q165 918 194.5 946.5Q224 975 278 975Q309 975 328 964.5Q347 954 361.5 942Q376 930 390 919.5Q404 909 425 909ZM350 55Q375 55 408.5 60Q442 65 472 84Q502 103 523 141.5Q544 180 544 248V750H615V235Q615 182 601.5 143Q588 104 566 77Q544 50 516 33Q488 16 458.5 6.5Q429 -3 400.5 -6.5Q372 -10 350 -10Q316 -10 270.5 -1.5Q225 7 183.5 33Q142 59 113.5 107Q85 155 85 235V750H156V248Q156 180 177 141.5Q198 103 228 84Q258 65 291.5 60Q325 55 350 55Z" glyph-name="Utilde" horiz-adv-x="700" unicode="&#360;" /><glyph d="M625 750 360 -10H310L45 750H123L335 103L547 750Z" glyph-name="V" horiz-adv-x="670" unicode="V" /><glyph d="M493 750 661 103 788 750H865L699 -10H629L455 645L281 -10H211L45 750H122L249 103L417 750Z" glyph-name="W" horiz-adv-x="910" unicode="W" /><glyph d="M590 825 455 941 320 825H290L415 1000H495L620 825ZM493 750 661 103 788 750H865L699 -10H629L455 645L281 -10H211L45 750H122L249 103L417 750Z" glyph-name="Wcircumflex" horiz-adv-x="910" unicode="&#372;" /><glyph d="M528 750H615L373 380L620 0H530L330 329L130 0H40L287 380L45 750H132L330 429Z" glyph-name="X" horiz-adv-x="660" unicode="X" /><glyph d="M385 310V0H315V310L45 750H131L350 373L569 750H655Z" glyph-name="Y" horiz-adv-x="700" unicode="Y" /><glyph d="M336 825 416 1000H511L366 825ZM385 310V0H315V310L45 750H131L350 373L569 750H655Z" glyph-name="Yacute" horiz-adv-x="700" unicode="&#221;" /><glyph d="M485 825 350 941 215 825H185L310 1000H390L515 825ZM385 310V0H315V310L45 750H131L350 373L569 750H655Z" glyph-name="Ycircumflex" horiz-adv-x="700" unicode="&#374;" /><glyph d="M506 935Q506 912 490 896Q474 880 451 880Q428 880 412 896Q396 912 396 935Q396 958 412 974Q428 990 451 990Q474 990 490 974Q506 958 506 935ZM251 880Q228 880 212 896Q196 912 196 935Q196 958 212 974Q228 990 251 990Q274 990 290 974Q306 958 306 935Q306 912 290 896Q274 880 251 880ZM385 310V0H315V310L45 750H131L350 373L569 750H655Z" glyph-name="Ydieresis" horiz-adv-x="700" unicode="&#376;" /><glyph d="M55 0V46L473 684H75V750H570V704L152 66H585V0Z" glyph-name="Z" horiz-adv-x="640" unicode="Z" /><glyph d="M298 825 378 1000H473L328 825ZM55 0V46L473 684H75V750H570V704L152 66H585V0Z" glyph-name="Zacute" horiz-adv-x="640" unicode="&#377;" /><glyph d="M478 1000 353 825H273L148 1000H198L313 884L428 1000ZM55 0V46L473 684H75V750H570V704L152 66H585V0Z" glyph-name="Zcaron" horiz-adv-x="640" unicode="&#381;" /><glyph d="M313 880Q290 880 274 896Q258 912 258 935Q258 958 274 974Q290 990 313 990Q336 990 352 974Q368 958 368 935Q368 912 352 896Q336 880 313 880ZM55 0V46L473 684H75V750H570V704L152 66H585V0Z" glyph-name="Zdotaccent" horiz-adv-x="640" unicode="&#379;" /><glyph d="M236 253Q204 250 184.5 240.5Q165 231 154 217Q143 203 139.5 186Q136 169 136 151Q136 134 139.5 116.5Q143 99 154.5 84.5Q166 70 187 61Q208 52 244 52Q285 52 314 62.5Q343 73 375 92V266ZM375 343Q375 370 369.5 390Q364 410 350.5 423Q337 436 314 442Q291 448 256 448Q205 448 170 440.5Q135 433 106 423V483Q139 497 179.5 503.5Q220 510 256 510Q312 510 348.5 498Q385 486 406.5 463.5Q428 441 436.5 410Q445 379 445 342V0H406L391 40Q357 15 318.5 2.5Q280 -10 242 -10Q193 -10 159 3.5Q125 17 104 39Q83 61 74 90Q65 119 65 151Q65 179 72 205Q79 231 98 252Q117 273 151.5 287.5Q186 302 241 307L375 315Z" glyph-name="a" horiz-adv-x="525" unicode="a" /><glyph d="M183 172H376L280 427ZM442 0 396 120H163L118 0H45L255 510H305L515 0Z" glyph-name="a.smcp" horiz-adv-x="560" /><glyph d="M241 575 321 750H416L271 575ZM236 253Q204 250 184.5 240.5Q165 231 154 217Q143 203 139.5 186Q136 169 136 151Q136 134 139.5 116.5Q143 99 154.5 84.5Q166 70 187 61Q208 52 244 52Q285 52 314 62.5Q343 73 375 92V266ZM375 343Q375 370 369.5 390Q364 410 350.5 423Q337 436 314 442Q291 448 256 448Q205 448 170 440.5Q135 433 106 423V483Q139 497 179.5 503.5Q220 510 256 510Q312 510 348.5 498Q385 486 406.5 463.5Q428 441 436.5 410Q445 379 445 342V0H406L391 40Q357 15 318.5 2.5Q280 -10 242 -10Q193 -10 159 3.5Q125 17 104 39Q83 61 74 90Q65 119 65 151Q65 179 72 205Q79 231 98 252Q117 273 151.5 287.5Q186 302 241 307L375 315Z" glyph-name="aacute" horiz-adv-x="525" unicode="&#225;" /><glyph d="M265 575 345 750H440L295 575ZM183 172H376L280 427ZM442 0 396 120H163L118 0H45L255 510H305L515 0Z" glyph-name="aacute.smcp" horiz-adv-x="560" /><glyph d="M256 585Q220 585 192 593.5Q164 602 144 621Q124 640 113 671.5Q102 703 101 750H142Q144 696 171 670.5Q198 645 256 645Q314 645 341 670.5Q368 696 370 750H411Q410 703 399 671.5Q388 640 368 621Q348 602 320 593.5Q292 585 256 585ZM236 253Q204 250 184.5 240.5Q165 231 154 217Q143 203 139.5 186Q136 169 136 151Q136 134 139.5 116.5Q143 99 154.5 84.5Q166 70 187 61Q208 52 244 52Q285 52 314 62.5Q343 73 375 92V266ZM375 343Q375 370 369.5 390Q364 410 350.5 423Q337 436 314 442Q291 448 256 448Q205 448 170 440.5Q135 433 106 423V483Q139 497 179.5 503.5Q220 510 256 510Q312 510 348.5 498Q385 486 406.5 463.5Q428 441 436.5 410Q445 379 445 342V0H406L391 40Q357 15 318.5 2.5Q280 -10 242 -10Q193 -10 159 3.5Q125 17 104 39Q83 61 74 90Q65 119 65 151Q65 179 72 205Q79 231 98 252Q117 273 151.5 287.5Q186 302 241 307L375 315Z" glyph-name="abreve" horiz-adv-x="525" unicode="&#259;" /><glyph d="M280 565Q244 565 216 575Q188 585 168 607Q148 629 137 664.5Q126 700 125 750H176Q177 716 182.5 692Q188 668 200 653Q212 638 231.5 631.5Q251 625 280 625Q338 625 360 653.5Q382 682 384 750H435Q434 700 423 664.5Q412 629 392 607Q372 585 344 575Q316 565 280 565ZM183 172H376L280 427ZM442 0 396 120H163L118 0H45L255 510H305L515 0Z" glyph-name="abreve.smcp" horiz-adv-x="560" /><glyph d="M391 575 256 691 121 575H91L216 750H296L421 575ZM236 253Q204 250 184.5 240.5Q165 231 154 217Q143 203 139.5 186Q136 169 136 151Q136 134 139.5 116.5Q143 99 154.5 84.5Q166 70 187 61Q208 52 244 52Q285 52 314 62.5Q343 73 375 92V266ZM375 343Q375 370 369.5 390Q364 410 350.5 423Q337 436 314 442Q291 448 256 448Q205 448 170 440.5Q135 433 106 423V483Q139 497 179.5 503.5Q220 510 256 510Q312 510 348.5 498Q385 486 406.5 463.5Q428 441 436.5 410Q445 379 445 342V0H406L391 40Q357 15 318.5 2.5Q280 -10 242 -10Q193 -10 159 3.5Q125 17 104 39Q83 61 74 90Q65 119 65 151Q65 179 72 205Q79 231 98 252Q117 273 151.5 287.5Q186 302 241 307L375 315Z" glyph-name="acircumflex" horiz-adv-x="525" unicode="&#226;" /><glyph d="M415 575 280 691 145 575H115L240 750H320L445 575ZM183 172H376L280 427ZM442 0 396 120H163L118 0H45L255 510H305L515 0Z" glyph-name="acircumflex.smcp" horiz-adv-x="560" /><glyph d="M286 575 366 750H461L316 575Z" glyph-name="acute" horiz-adv-x="540" unicode="&#180;" /><glyph d="M411 685Q411 662 395 646Q379 630 356 630Q333 630 317 646Q301 662 301 685Q301 708 317 724Q333 740 356 740Q379 740 395 724Q411 708 411 685ZM156 630Q133 630 117 646Q101 662 101 685Q101 708 117 724Q133 740 156 740Q179 740 195 724Q211 708 211 685Q211 662 195 646Q179 630 156 630ZM236 253Q204 250 184.5 240.5Q165 231 154 217Q143 203 139.5 186Q136 169 136 151Q136 134 139.5 116.5Q143 99 154.5 84.5Q166 70 187 61Q208 52 244 52Q285 52 314 62.5Q343 73 375 92V266ZM375 343Q375 370 369.5 390Q364 410 350.5 423Q337 436 314 442Q291 448 256 448Q205 448 170 440.5Q135 433 106 423V483Q139 497 179.5 503.5Q220 510 256 510Q312 510 348.5 498Q385 486 406.5 463.5Q428 441 436.5 410Q445 379 445 342V0H406L391 40Q357 15 318.5 2.5Q280 -10 242 -10Q193 -10 159 3.5Q125 17 104 39Q83 61 74 90Q65 119 65 151Q65 179 72 205Q79 231 98 252Q117 273 151.5 287.5Q186 302 241 307L375 315Z" glyph-name="adieresis" horiz-adv-x="525" unicode="&#228;" /><glyph d="M435 685Q435 662 419 646Q403 630 380 630Q357 630 341 646Q325 662 325 685Q325 708 341 724Q357 740 380 740Q403 740 419 724Q435 708 435 685ZM180 630Q157 630 141 646Q125 662 125 685Q125 708 141 724Q157 740 180 740Q203 740 219 724Q235 708 235 685Q235 662 219 646Q203 630 180 630ZM183 172H376L280 427ZM442 0 396 120H163L118 0H45L255 510H305L515 0Z" glyph-name="adieresis.smcp" horiz-adv-x="560" /><glyph d="M605 448Q562 448 535.5 434Q509 420 494 397Q479 374 472.5 344Q466 314 465 281H725Q725 313 722 343Q719 373 707 396.5Q695 420 671 434Q647 448 605 448ZM244 224Q212 224 191 218Q170 212 158 201Q146 190 141 174.5Q136 159 136 141Q136 124 141 108Q146 92 159.5 79.5Q173 67 196 59.5Q219 52 256 52Q298 52 336 64.5Q374 77 397 97L414 112Q398 160 395 223V224ZM395 343Q395 398 365.5 423Q336 448 264 448Q212 448 173.5 440.5Q135 433 106 423V483Q139 497 183 503.5Q227 510 264 510Q336 510 378.5 491.5Q421 473 441 441Q465 473 504.5 491.5Q544 510 605 510Q669 510 706.5 489.5Q744 469 763.5 434Q783 399 789 351.5Q795 304 795 250V224H465V218Q466 185 472.5 155Q479 125 494 102Q509 79 536 65.5Q563 52 605 52Q659 52 696 58Q733 64 770 80V20Q728 1 685 -4.5Q642 -10 605 -10Q545 -10 505.5 8Q466 26 442 58L411 34Q377 9 334.5 -0.5Q292 -10 254 -10Q203 -10 167.5 1.5Q132 13 109 33.5Q86 54 75.5 81.5Q65 109 65 141Q65 170 73 195.5Q81 221 101.5 240Q122 259 157.5 270Q193 281 249 281H395Z" glyph-name="ae" horiz-adv-x="865" unicode="&#230;" /><glyph d="M365 287V421L280 287ZM24 0 354 500H700V439H431V287H665V226H431V61H700V0H365V226H242L99 0Z" glyph-name="ae.smcp" horiz-adv-x="765" /><glyph d="M1140 308H60V374H1140Z" glyph-name="afii00208" horiz-adv-x="1200" unicode="&#8213;" /><glyph d="M241 575 96 750H191L271 575ZM236 253Q204 250 184.5 240.5Q165 231 154 217Q143 203 139.5 186Q136 169 136 151Q136 134 139.5 116.5Q143 99 154.5 84.5Q166 70 187 61Q208 52 244 52Q285 52 314 62.5Q343 73 375 92V266ZM375 343Q375 370 369.5 390Q364 410 350.5 423Q337 436 314 442Q291 448 256 448Q205 448 170 440.5Q135 433 106 423V483Q139 497 179.5 503.5Q220 510 256 510Q312 510 348.5 498Q385 486 406.5 463.5Q428 441 436.5 410Q445 379 445 342V0H406L391 40Q357 15 318.5 2.5Q280 -10 242 -10Q193 -10 159 3.5Q125 17 104 39Q83 61 74 90Q65 119 65 151Q65 179 72 205Q79 231 98 252Q117 273 151.5 287.5Q186 302 241 307L375 315Z" glyph-name="agrave" horiz-adv-x="525" unicode="&#224;" /><glyph d="M265 575 120 750H215L295 575ZM183 172H376L280 427ZM442 0 396 120H163L118 0H45L255 510H305L515 0Z" glyph-name="agrave.smcp" horiz-adv-x="560" /><glyph d="M119 680V745H393V680ZM236 253Q204 250 184.5 240.5Q165 231 154 217Q143 203 139.5 186Q136 169 136 151Q136 134 139.5 116.5Q143 99 154.5 84.5Q166 70 187 61Q208 52 244 52Q285 52 314 62.5Q343 73 375 92V266ZM375 343Q375 370 369.5 390Q364 410 350.5 423Q337 436 314 442Q291 448 256 448Q205 448 170 440.5Q135 433 106 423V483Q139 497 179.5 503.5Q220 510 256 510Q312 510 348.5 498Q385 486 406.5 463.5Q428 441 436.5 410Q445 379 445 342V0H406L391 40Q357 15 318.5 2.5Q280 -10 242 -10Q193 -10 159 3.5Q125 17 104 39Q83 61 74 90Q65 119 65 151Q65 179 72 205Q79 231 98 252Q117 273 151.5 287.5Q186 302 241 307L375 315Z" glyph-name="amacron" horiz-adv-x="525" unicode="&#257;" /><glyph d="M143 640H417V575H143ZM183 172H376L280 427ZM442 0 396 120H163L118 0H45L255 510H305L515 0Z" glyph-name="amacron.smcp" horiz-adv-x="560" /><glyph d="M335 52Q358 52 382.5 55Q407 58 431 65Q350 118 293.5 196Q237 274 205 360Q173 343 149 311.5Q125 280 125 225Q125 179 140.5 146.5Q156 114 184 93Q212 72 250.5 62Q289 52 335 52ZM418 590Q421 599 423 610.5Q425 622 425 638Q425 649 422 660Q419 671 410 679.5Q401 688 384.5 693Q368 698 340 698Q307 698 286 686.5Q265 675 253 657Q241 639 237 617Q233 595 233 575Q233 525 248 458.5Q263 392 296 324.5Q329 257 380.5 196.5Q432 136 505 99Q549 127 577 172.5Q605 218 605 285Q605 328 595.5 357Q586 386 569.5 404Q553 422 530 430Q507 438 480 438Q459 438 442.5 437Q426 436 412.5 434Q399 432 386.5 428.5Q374 425 360 421V481Q398 493 424 496.5Q450 500 480 500Q522 500 557.5 487.5Q593 475 619.5 448.5Q646 422 660.5 381.5Q675 341 675 285Q675 213 647.5 160.5Q620 108 575 71Q627 56 690 56V-10Q589 -10 504 27Q463 8 420 -1Q377 -10 335 -10Q275 -10 223.5 3Q172 16 134.5 44Q97 72 76 117Q55 162 55 225Q55 262 65.5 293Q76 324 94 349Q112 374 135.5 392.5Q159 411 185 423Q164 501 164 575Q164 605 172.5 638Q181 671 201.5 698Q222 725 256 742.5Q290 760 340 760Q385 760 414 750.5Q443 741 460 724.5Q477 708 483.5 685.5Q490 663 490 638Q490 626 487 613Q484 600 480 590Z" glyph-name="ampersand" horiz-adv-x="735" unicode="&amp;" /><glyph d="M236 253Q204 250 184.5 240.5Q165 231 154 217Q143 203 139.5 186Q136 169 136 151Q136 134 139.5 116.5Q143 99 154.5 84.5Q166 70 187 61Q208 52 244 52Q285 52 314 62.5Q343 73 375 92V266ZM375 343Q375 370 369.5 390Q364 410 350.5 423Q337 436 314 442Q291 448 256 448Q205 448 170 440.5Q135 433 106 423V483Q139 497 179.5 503.5Q220 510 256 510Q312 510 348.5 498Q385 486 406.5 463.5Q428 441 436.5 410Q445 379 445 342V0Q396 -20 367.5 -51.5Q339 -83 339 -122Q339 -145 351.5 -162Q364 -179 393 -179Q410 -179 424.5 -176.5Q439 -174 450 -171V-219Q437 -224 419 -227Q401 -230 379 -230Q334 -230 306 -205Q278 -180 278 -135Q278 -113 283.5 -92.5Q289 -72 302.5 -53Q316 -34 339.5 -16Q363 2 398 19L391 40Q357 15 318.5 2.5Q280 -10 242 -10Q193 -10 159 3.5Q125 17 104 39Q83 61 74 90Q65 119 65 151Q65 179 72 205Q79 231 98 252Q117 273 151.5 287.5Q186 302 241 307L375 315Z" glyph-name="aogonek" horiz-adv-x="525" unicode="&#261;" /><glyph d="M183 172H376L280 427ZM515 0Q466 -20 437.5 -51.5Q409 -83 409 -122Q409 -145 421.5 -162Q434 -179 463 -179Q480 -179 494.5 -176.5Q509 -174 520 -171V-219Q507 -224 489 -227Q471 -230 449 -230Q404 -230 376 -205Q348 -180 348 -135Q348 -47 440 3L396 120H163L118 0H45L255 510H305Z" glyph-name="aogonek.smcp" horiz-adv-x="560" /><glyph d="M175 142 283 250 175 358 222 405 330 297 438 405 485 358 377 250 485 142 438 95 330 203 222 95ZM146 61H514V439H146ZM80 500H580V0H80Z" glyph-name="approxequal" horiz-adv-x="660" unicode="&#8776;" /><glyph d="M304 662Q304 690 291.5 700.5Q279 711 256 711Q233 711 220 700.5Q207 690 207 662Q207 635 220 624.5Q233 614 256 614Q279 614 291.5 624.5Q304 635 304 662ZM354 662Q354 611 327.5 588Q301 565 256 565Q211 565 184 588Q157 611 157 662Q157 714 184 737Q211 760 256 760Q301 760 327.5 737Q354 714 354 662ZM236 253Q204 250 184.5 240.5Q165 231 154 217Q143 203 139.5 186Q136 169 136 151Q136 134 139.5 116.5Q143 99 154.5 84.5Q166 70 187 61Q208 52 244 52Q285 52 314 62.5Q343 73 375 92V266ZM375 343Q375 370 369.5 390Q364 410 350.5 423Q337 436 314 442Q291 448 256 448Q205 448 170 440.5Q135 433 106 423V483Q139 497 179.5 503.5Q220 510 256 510Q312 510 348.5 498Q385 486 406.5 463.5Q428 441 436.5 410Q445 379 445 342V0H406L391 40Q357 15 318.5 2.5Q280 -10 242 -10Q193 -10 159 3.5Q125 17 104 39Q83 61 74 90Q65 119 65 151Q65 179 72 205Q79 231 98 252Q117 273 151.5 287.5Q186 302 241 307L375 315Z" glyph-name="aring" horiz-adv-x="525" unicode="&#229;" /><glyph d="M328 662Q328 690 315.5 700.5Q303 711 280 711Q257 711 244 700.5Q231 690 231 662Q231 635 244 624.5Q257 614 280 614Q303 614 315.5 624.5Q328 635 328 662ZM378 662Q378 611 351.5 588Q325 565 280 565Q235 565 208 588Q181 611 181 662Q181 714 208 737Q235 760 280 760Q325 760 351.5 737Q378 714 378 662ZM183 172H376L280 427ZM442 0 396 120H163L118 0H45L255 510H305L515 0Z" glyph-name="aring.smcp" horiz-adv-x="560" /><glyph d="M417 500 280 681 143 500H80L247 750H313L480 500Z" glyph-name="asciicircum" horiz-adv-x="540" unicode="^" /><glyph d="M335 340Q316 354 298.5 360.5Q281 367 260 367Q241 367 226.5 357Q212 347 197 335Q182 323 163 313Q144 303 116 303Q90 303 68.5 315Q47 327 35 339V391Q54 377 71.5 370.5Q89 364 110 364Q129 364 143.5 374Q158 384 173 396Q188 408 207 418Q226 428 254 428Q280 428 301.5 416Q323 404 335 392Z" glyph-name="asciitilde" horiz-adv-x="370" unicode="~" /><glyph d="M150 564 9 588 33 661 161 601ZM225 601 354 662 376 588 236 564ZM174 609 154 750H232L212 609ZM186 528 118 400 57 446 154 550ZM232 550 331 445 268 402 200 528Z" glyph-name="asterisk" horiz-adv-x="385" unicode="*" /><glyph d="M586 62Q600 66 613.5 71.5Q627 77 640 84V416Q609 433 578.5 440.5Q548 448 500 448Q455 448 428.5 431Q402 414 387.5 386Q373 358 369 322.5Q365 287 365 250Q365 213 369 177.5Q373 142 387.5 114Q402 86 428.5 69Q455 52 500 52Q553 52 586 62ZM55 250Q55 317 62 381Q69 445 88 501.5Q107 558 140 605.5Q173 653 225.5 687.5Q278 722 351.5 741Q425 760 525 760Q625 760 698 746Q771 732 822 706.5Q873 681 905 644Q937 607 954.5 560.5Q972 514 978.5 460Q985 406 985 345Q985 265 973.5 201Q962 137 931.5 92.5Q901 48 847.5 24Q794 0 710 0H671L656 41Q617 16 579 3Q541 -10 500 -10Q440 -10 400 10.5Q360 31 337 66Q314 101 304.5 148.5Q295 196 295 250Q295 304 304.5 351.5Q314 399 337 434Q360 469 400 489.5Q440 510 500 510Q540 510 580.5 497Q621 484 656 458L671 500H710V62Q771 62 810.5 81Q850 100 872 136Q894 172 902.5 224.5Q911 277 911 345Q911 398 906.5 444.5Q902 491 888.5 530Q875 569 849 599.5Q823 630 780 651.5Q737 673 674.5 684.5Q612 696 525 696Q438 696 374.5 679Q311 662 267 632Q223 602 196 560.5Q169 519 154 469.5Q139 420 134 364Q129 308 129 250Q129 192 134 136Q139 80 154 30.5Q169 -19 196 -60.5Q223 -102 267 -132Q311 -162 374.5 -179Q438 -196 525 -196Q613 -196 675 -184.5Q737 -173 780 -152L781 -224Q733 -241 670 -250.5Q607 -260 525 -260Q425 -260 351.5 -241Q278 -222 225.5 -187.5Q173 -153 140 -105.5Q107 -58 88 -1.5Q69 55 62 119Q55 183 55 250Z" glyph-name="at" horiz-adv-x="1040" unicode="@" /><glyph d="M337 659Q356 659 366 664.5Q376 670 380.5 677.5Q385 685 385.5 694Q386 703 386 711L443 710Q447 657 417 628.5Q387 600 333 600Q302 600 283 610.5Q264 621 249.5 633Q235 645 221 655.5Q207 666 186 666Q167 666 157.5 660.5Q148 655 143.5 647.5Q139 640 138.5 630.5Q138 621 138 614L81 615Q77 668 106.5 696.5Q136 725 190 725Q221 725 240 714.5Q259 704 273.5 692Q288 680 302 669.5Q316 659 337 659ZM236 253Q204 250 184.5 240.5Q165 231 154 217Q143 203 139.5 186Q136 169 136 151Q136 134 139.5 116.5Q143 99 154.5 84.5Q166 70 187 61Q208 52 244 52Q285 52 314 62.5Q343 73 375 92V266ZM375 343Q375 370 369.5 390Q364 410 350.5 423Q337 436 314 442Q291 448 256 448Q205 448 170 440.5Q135 433 106 423V483Q139 497 179.5 503.5Q220 510 256 510Q312 510 348.5 498Q385 486 406.5 463.5Q428 441 436.5 410Q445 379 445 342V0H406L391 40Q357 15 318.5 2.5Q280 -10 242 -10Q193 -10 159 3.5Q125 17 104 39Q83 61 74 90Q65 119 65 151Q65 179 72 205Q79 231 98 252Q117 273 151.5 287.5Q186 302 241 307L375 315Z" glyph-name="atilde" horiz-adv-x="525" unicode="&#227;" /><glyph d="M355 659Q374 659 384 664.5Q394 670 398.5 677.5Q403 685 403.5 694Q404 703 404 711L461 710Q465 657 435 628.5Q405 600 351 600Q320 600 301 610.5Q282 621 267.5 633Q253 645 239 655.5Q225 666 204 666Q185 666 175.5 660.5Q166 655 161.5 647.5Q157 640 156.5 630.5Q156 621 156 614L99 615Q95 668 124.5 696.5Q154 725 208 725Q239 725 258 714.5Q277 704 291.5 692Q306 680 320 669.5Q334 659 355 659ZM183 172H376L280 427ZM442 0 396 120H163L118 0H45L255 510H305L515 0Z" glyph-name="atilde.smcp" horiz-adv-x="560" /><glyph d="M204 438Q170 427 150 416V84Q179 68 210 60Q241 52 290 52Q335 52 361.5 69Q388 86 402.5 114Q417 142 421 177.5Q425 213 425 250Q425 287 421 322.5Q417 358 402.5 386Q388 414 361.5 431Q335 448 290 448Q237 448 204 438ZM290 510Q350 510 390 489.5Q430 469 453 434Q476 399 485.5 351.5Q495 304 495 250Q495 196 485.5 148.5Q476 101 453 66Q430 31 390 10.5Q350 -10 290 -10Q249 -10 211 3Q173 16 134 41L119 0H80V750H150V469Q182 490 218.5 500Q255 510 290 510Z" glyph-name="b" horiz-adv-x="565" unicode="b" /><glyph d="M302 302Q326 302 341 307Q356 312 364.5 321Q373 330 375.5 342.5Q378 355 378 370Q378 385 375 398Q372 411 363 420Q354 429 338 434Q322 439 296 439H156V302ZM398 151Q398 169 394.5 185.5Q391 202 380.5 214.5Q370 227 350.5 234Q331 241 300 241H156V61H300Q331 61 350.5 68Q370 75 380.5 87.5Q391 100 394.5 116.5Q398 133 398 151ZM90 500H288Q375 500 410 466.5Q445 433 445 370Q445 341 431 315Q417 289 394 277Q429 263 449 227Q469 191 469 151Q469 119 461 91Q453 63 433.5 43Q414 23 382.5 11.5Q351 0 305 0H90Z" glyph-name="b.smcp" horiz-adv-x="529" /><glyph d="M347 -206 0 816H73L420 -206Z" glyph-name="backslash" horiz-adv-x="420" unicode="\" /><glyph d="M102 -206V816H173V-206Z" glyph-name="bar" horiz-adv-x="275" unicode="|" /><glyph d="M43 338Q66 338 76 347.5Q86 357 85 377L67 707Q64 765 95.5 790.5Q127 816 180 816H195V750H180Q136 750 138 711L156 381Q157 358 148.5 338.5Q140 319 126 305Q140 291 148.5 271.5Q157 252 156 229L138 -101Q136 -140 180 -140H195V-206H180Q127 -206 95.5 -180.5Q64 -155 67 -97L85 233Q87 269 48 272H33V338Z" glyph-name="braceleft" horiz-adv-x="240" unicode="{" /><glyph d="M207 338V272H192Q153 269 155 233L173 -97Q176 -155 144.5 -180.5Q113 -206 60 -206H45V-140H60Q104 -140 102 -101L84 229Q83 252 93 273Q103 294 117 305Q103 316 93 337Q83 358 84 381L102 711Q104 750 60 750H45V816H60Q113 816 144.5 790.5Q176 765 173 707L155 377Q153 338 197 338Z" glyph-name="braceright" horiz-adv-x="240" unicode="}" /><glyph d="M151 -140H215V-206H80V816H215V750H151Z" glyph-name="bracketleft" horiz-adv-x="260" unicode="[" /><glyph d="M109 750H45V816H180V-206H45V-140H109Z" glyph-name="bracketright" horiz-adv-x="260" unicode="]" /><glyph d="M280 565Q244 565 216 575Q188 585 168 607Q148 629 137 664.5Q126 700 125 750H176Q177 716 182.5 692Q188 668 200 653Q212 638 231.5 631.5Q251 625 280 625Q338 625 360 653.5Q382 682 384 750H435Q434 700 423 664.5Q412 629 392 607Q372 585 344 575Q316 565 280 565Z" glyph-name="breve" horiz-adv-x="602" unicode="&#728;" /><glyph d="M173 338H102V815H173ZM102 -206V272H173V-206Z" glyph-name="brokenbar" horiz-adv-x="275" unicode="&#166;" /><glyph d="M65 375Q65 403 75.5 427.5Q86 452 104.5 470.5Q123 489 147.5 499.5Q172 510 200 510Q228 510 252.5 499.5Q277 489 295.5 470.5Q314 452 324.5 427.5Q335 403 335 375Q335 347 324.5 322.5Q314 298 295.5 279.5Q277 261 252.5 250.5Q228 240 200 240Q172 240 147.5 250.5Q123 261 104.5 279.5Q86 298 75.5 322.5Q65 347 65 375Z" glyph-name="bullet" horiz-adv-x="400" unicode="&#8226;" /><glyph d="M70 250Q70 304 79 351.5Q88 399 112 434Q136 469 177 489.5Q218 510 281 510Q318 510 357.5 504.5Q397 499 430 485V425Q401 435 367 441.5Q333 448 280 448Q233 448 205 431Q177 414 162.5 386Q148 358 144 322.5Q140 287 140 250Q140 213 144 177.5Q148 142 162.5 114Q177 86 205 69Q233 52 280 52Q333 52 367 58.5Q401 65 430 75V15Q397 1 357.5 -4.5Q318 -10 281 -10Q218 -10 177 10.5Q136 31 112 66Q88 101 79 148.5Q70 196 70 250Z" glyph-name="c" horiz-adv-x="490" unicode="c" /><glyph d="M75 250Q75 304 88 351.5Q101 399 129.5 434Q158 469 203 489.5Q248 510 311 510Q348 510 387.5 504.5Q427 499 460 485V425Q431 435 397 441.5Q363 448 310 448Q263 448 231 431Q199 414 180 386Q161 358 153 322.5Q145 287 145 250Q145 213 153 177.5Q161 142 180 114Q199 86 231 69Q263 52 310 52Q363 52 397 58.5Q431 65 460 75V15Q427 1 387.5 -4.5Q348 -10 311 -10Q248 -10 203 10.5Q158 31 129.5 66Q101 101 88 148.5Q75 196 75 250Z" glyph-name="c.smcp" horiz-adv-x="535" /><glyph d="M248 575 328 750H423L298 575ZM70 250Q70 304 79 351.5Q88 399 112 434Q136 469 177 489.5Q218 510 281 510Q318 510 357.5 504.5Q397 499 430 485V425Q401 435 367 441.5Q333 448 280 448Q233 448 205 431Q177 414 162.5 386Q148 358 144 322.5Q140 287 140 250Q140 213 144 177.5Q148 142 162.5 114Q177 86 205 69Q233 52 280 52Q333 52 367 58.5Q401 65 430 75V15Q397 1 357.5 -4.5Q318 -10 281 -10Q218 -10 177 10.5Q136 31 112 66Q88 101 79 148.5Q70 196 70 250Z" glyph-name="cacute" horiz-adv-x="490" unicode="&#263;" /><glyph d="M276 575 356 750H451L306 575ZM75 250Q75 304 88 351.5Q101 399 129.5 434Q158 469 203 489.5Q248 510 311 510Q348 510 387.5 504.5Q427 499 460 485V425Q431 435 397 441.5Q363 448 310 448Q263 448 231 431Q199 414 180 386Q161 358 153 322.5Q145 287 145 250Q145 213 153 177.5Q161 142 180 114Q199 86 231 69Q263 52 310 52Q363 52 397 58.5Q431 65 460 75V15Q427 1 387.5 -4.5Q348 -10 311 -10Q248 -10 203 10.5Q158 31 129.5 66Q101 101 88 148.5Q75 196 75 250Z" glyph-name="cacute.smcp" horiz-adv-x="535" /><glyph d="M145 750 280 634 415 750H445L320 575H240L115 750Z" glyph-name="caron" horiz-adv-x="540" unicode="&#711;" /><glyph d="M339 750 268 575H221L245 750Z" glyph-name="caronSlovak" horiz-adv-x="270" /><glyph d="M436 750 311 575H231L106 750H156L271 634L386 750ZM70 250Q70 304 79 351.5Q88 399 112 434Q136 469 177 489.5Q218 510 281 510Q318 510 357.5 504.5Q397 499 430 485V425Q401 435 367 441.5Q333 448 280 448Q233 448 205 431Q177 414 162.5 386Q148 358 144 322.5Q140 287 140 250Q140 213 144 177.5Q148 142 162.5 114Q177 86 205 69Q233 52 280 52Q333 52 367 58.5Q401 65 430 75V15Q397 1 357.5 -4.5Q318 -10 281 -10Q218 -10 177 10.5Q136 31 112 66Q88 101 79 148.5Q70 196 70 250Z" glyph-name="ccaron" horiz-adv-x="490" unicode="&#269;" /><glyph d="M160 750 295 634 430 750H460L335 575H255L130 750ZM75 250Q75 304 88 351.5Q101 399 129.5 434Q158 469 203 489.5Q248 510 311 510Q348 510 387.5 504.5Q427 499 460 485V425Q431 435 397 441.5Q363 448 310 448Q263 448 231 431Q199 414 180 386Q161 358 153 322.5Q145 287 145 250Q145 213 153 177.5Q161 142 180 114Q199 86 231 69Q263 52 310 52Q363 52 397 58.5Q431 65 460 75V15Q427 1 387.5 -4.5Q348 -10 311 -10Q248 -10 203 10.5Q158 31 129.5 66Q101 101 88 148.5Q75 196 75 250Z" glyph-name="ccaron.smcp" horiz-adv-x="535" /><glyph d="M70 250Q70 304 79 351.5Q88 399 112 434Q136 469 177 489.5Q218 510 281 510Q318 510 357.5 504.5Q397 499 430 485V425Q401 435 367 441.5Q333 448 280 448Q233 448 205 431Q177 414 162.5 386Q148 358 144 322.5Q140 287 140 250Q140 213 144 177.5Q148 142 162.5 114Q177 86 205 69Q233 52 280 52Q333 52 367 58.5Q401 65 430 75V15Q399 2 363.5 -3.5Q328 -9 293 -10Q282 -25 280.5 -41Q279 -57 302 -71Q327 -85 334 -101Q341 -117 338 -133Q335 -149 325.5 -162.5Q316 -176 307 -185H231Q241 -176 250 -165Q259 -154 263.5 -142.5Q268 -131 266.5 -121.5Q265 -112 255 -106Q237 -96 231 -83.5Q225 -71 226.5 -57.5Q228 -44 235 -31Q242 -18 249 -8Q195 -3 160.5 19Q126 41 106 75.5Q86 110 78 154.5Q70 199 70 250Z" glyph-name="ccedilla" horiz-adv-x="490" unicode="&#231;" /><glyph d="M254 -185Q264 -176 273 -165Q282 -154 286.5 -142.5Q291 -131 289.5 -121.5Q288 -112 278 -106Q260 -96 254 -83.5Q248 -71 250 -57.5Q252 -44 259 -31Q266 -18 273 -8Q220 -2 182.5 20.5Q145 43 121 77.5Q97 112 86 156Q75 200 75 250Q75 304 88 351.5Q101 399 129.5 434Q158 469 203 489.5Q248 510 311 510Q348 510 387.5 504.5Q427 499 460 485V425Q431 435 397 441.5Q363 448 310 448Q263 448 231 431Q199 414 180 386Q161 358 153 322.5Q145 287 145 250Q145 213 153 177.5Q161 142 180 114Q199 86 231 69Q263 52 310 52Q363 52 397 58.5Q431 65 460 75V15Q428 1 390 -4Q352 -9 316 -10Q305 -25 303.5 -41Q302 -57 325 -71Q350 -85 357 -101Q364 -117 361 -133Q358 -149 348.5 -162.5Q339 -176 330 -185Z" glyph-name="ccedilla.smcp" horiz-adv-x="535" /><glyph d="M106 575 231 750H311L436 575H386L271 691L156 575ZM70 250Q70 304 79 351.5Q88 399 112 434Q136 469 177 489.5Q218 510 281 510Q318 510 357.5 504.5Q397 499 430 485V425Q401 435 367 441.5Q333 448 280 448Q233 448 205 431Q177 414 162.5 386Q148 358 144 322.5Q140 287 140 250Q140 213 144 177.5Q148 142 162.5 114Q177 86 205 69Q233 52 280 52Q333 52 367 58.5Q401 65 430 75V15Q397 1 357.5 -4.5Q318 -10 281 -10Q218 -10 177 10.5Q136 31 112 66Q88 101 79 148.5Q70 196 70 250Z" glyph-name="ccircumflex" horiz-adv-x="490" unicode="&#265;" /><glyph d="M430 575 295 691 160 575H130L255 750H335L460 575ZM75 250Q75 304 88 351.5Q101 399 129.5 434Q158 469 203 489.5Q248 510 311 510Q348 510 387.5 504.5Q427 499 460 485V425Q431 435 397 441.5Q363 448 310 448Q263 448 231 431Q199 414 180 386Q161 358 153 322.5Q145 287 145 250Q145 213 153 177.5Q161 142 180 114Q199 86 231 69Q263 52 310 52Q363 52 397 58.5Q431 65 460 75V15Q427 1 387.5 -4.5Q348 -10 311 -10Q248 -10 203 10.5Q158 31 129.5 66Q101 101 88 148.5Q75 196 75 250Z" glyph-name="ccircumflex.smcp" horiz-adv-x="535" /><glyph d="M271 630Q248 630 232 646Q216 662 216 685Q216 708 232 724Q248 740 271 740Q294 740 310 724Q326 708 326 685Q326 662 310 646Q294 630 271 630ZM70 250Q70 304 79 351.5Q88 399 112 434Q136 469 177 489.5Q218 510 281 510Q318 510 357.5 504.5Q397 499 430 485V425Q401 435 367 441.5Q333 448 280 448Q233 448 205 431Q177 414 162.5 386Q148 358 144 322.5Q140 287 140 250Q140 213 144 177.5Q148 142 162.5 114Q177 86 205 69Q233 52 280 52Q333 52 367 58.5Q401 65 430 75V15Q397 1 357.5 -4.5Q318 -10 281 -10Q218 -10 177 10.5Q136 31 112 66Q88 101 79 148.5Q70 196 70 250Z" glyph-name="cdotaccent" horiz-adv-x="490" unicode="&#267;" /><glyph d="M295 630Q272 630 256 646Q240 662 240 685Q240 708 256 724Q272 740 295 740Q318 740 334 724Q350 708 350 685Q350 662 334 646Q318 630 295 630ZM75 250Q75 304 88 351.5Q101 399 129.5 434Q158 469 203 489.5Q248 510 311 510Q348 510 387.5 504.5Q427 499 460 485V425Q431 435 397 441.5Q363 448 310 448Q263 448 231 431Q199 414 180 386Q161 358 153 322.5Q145 287 145 250Q145 213 153 177.5Q161 142 180 114Q199 86 231 69Q263 52 310 52Q363 52 397 58.5Q431 65 460 75V15Q427 1 387.5 -4.5Q348 -10 311 -10Q248 -10 203 10.5Q158 31 129.5 66Q101 101 88 148.5Q75 196 75 250Z" glyph-name="cdotaccent.smcp" horiz-adv-x="535" /><glyph d="M231 -185Q241 -176 250 -165Q259 -154 263.5 -142.5Q268 -131 266.5 -121.5Q265 -112 255 -106Q235 -95 230 -80.5Q225 -66 228.5 -51Q232 -36 240.5 -22.5Q249 -9 256 0H301Q294 -9 288.5 -18Q283 -27 281.5 -36Q280 -45 284 -54Q288 -63 302 -71Q327 -85 334 -101Q341 -117 338 -133Q335 -149 325.5 -162.5Q316 -176 307 -185Z" glyph-name="cedilla" horiz-adv-x="602" unicode="&#184;" /><glyph d="M414 630Q441 626 468 619.5Q495 613 515 605V545Q486 555 442.5 564Q399 573 345 573Q250 573 195 521.5Q140 470 140 375Q140 280 195 228.5Q250 177 345 177Q399 177 442.5 186Q486 195 515 205V145Q498 138 476.5 132.5Q455 127 432 123Q409 119 386.5 117Q364 115 346 115Q338 115 330 115Q322 115 314 116L275 0H200L248 126Q164 149 117 211Q70 273 70 375Q70 439 89.5 487.5Q109 536 145 569Q181 602 232 618.5Q283 635 346 635L385 750H460Z" glyph-name="cent" horiz-adv-x="600" unicode="&#162;" /><glyph d="M70 250Q70 304 79 351.5Q88 399 112 434Q136 469 177 489.5Q218 510 281 510L320 625H395L349 505Q391 501 430 485V425Q401 435 367 441.5Q333 448 280 448Q233 448 205 431Q177 414 162.5 386Q148 358 144 322.5Q140 287 140 250Q140 213 144 177.5Q148 142 162.5 114Q177 86 205 69Q233 52 280 52Q333 52 367 58.5Q401 65 430 75V15Q397 1 357.5 -4.5Q318 -10 281 -10Q273 -10 265 -10Q257 -10 249 -9L210 -125H135L185 6Q151 20 129 44Q107 68 94 100Q81 132 75.5 170Q70 208 70 250Z" glyph-name="cent.OP" horiz-adv-x="490" /><glyph d="M415 575 280 691 145 575H115L240 750H320L445 575Z" glyph-name="circumflex" horiz-adv-x="540" unicode="&#710;" /><glyph d="M55 375Q55 398 71 414Q87 430 110 430Q133 430 149 414Q165 398 165 375Q165 352 149 336Q133 320 110 320Q87 320 71 336Q55 352 55 375ZM55 45Q55 68 71 84Q87 100 110 100Q133 100 149 84Q165 68 165 45Q165 22 149 6Q133 -10 110 -10Q87 -10 71 6Q55 22 55 45Z" glyph-name="colon" horiz-adv-x="220" unicode=":" /><glyph d="M63 -114 88 -5Q72 1 63.5 14.5Q55 28 55 45Q55 68 71 84Q87 100 110 100Q133 100 149 84Q165 68 165 45Q165 30 159 18L98 -114Z" glyph-name="comma" horiz-adv-x="220" unicode="," /><glyph d="M241 -250 259 -170Q243 -164 234.5 -150.5Q226 -137 226 -120Q226 -97 242 -81Q258 -65 281 -65Q304 -65 320 -81Q336 -97 336 -120Q336 -135 330 -147L283 -250Z" glyph-name="commaaccent" horiz-adv-x="602" unicode="&#63171;" /><glyph d="M337 159Q361 159 385 162.5Q409 166 426 171V110Q406 105 381.5 102Q357 99 337 99Q269 99 233.5 132.5Q198 166 198 250Q198 334 233.5 367.5Q269 401 337 401Q357 401 381.5 398Q406 395 426 390V329Q409 334 385 337.5Q361 341 337 341Q317 341 303 337Q289 333 280 323Q271 313 266.5 295.5Q262 278 262 250Q262 222 266.5 204.5Q271 187 280 177Q289 167 303 163Q317 159 337 159ZM335 52Q378 52 414.5 59Q451 66 477 87Q503 108 518 147Q533 186 533 250Q533 314 518 353Q503 392 477 413Q451 434 414.5 441Q378 448 335 448Q292 448 255.5 441Q219 434 193 413Q167 392 152 353Q137 314 137 250Q137 186 152 147Q167 108 193 87Q219 66 255.5 59Q292 52 335 52ZM335 -10Q282 -10 234 0.5Q186 11 149.5 39.5Q113 68 91.5 119Q70 170 70 250Q70 331 91.5 381.5Q113 432 149.5 460.5Q186 489 234 499.5Q282 510 335 510Q388 510 436 499.5Q484 489 520.5 460.5Q557 432 578.5 381.5Q600 331 600 250Q600 170 578.5 119Q557 68 520.5 39.5Q484 11 436 0.5Q388 -10 335 -10Z" glyph-name="copyright" horiz-adv-x="680" unicode="&#169;" /><glyph d="M60 418V484H124Q129 548 144 599Q159 650 188 686Q217 722 262.5 741Q308 760 375 760Q412 760 456.5 753Q501 746 534 732V672Q505 682 467 690Q429 698 375 698Q328 698 295.5 683Q263 668 242 640Q221 612 209.5 572.5Q198 533 194 484H473L450 418H190V332H420L397 266H194Q198 217 209.5 177.5Q221 138 242 110Q263 82 295.5 67Q328 52 375 52Q429 52 467 60Q505 68 534 78V18Q501 4 456.5 -3Q412 -10 375 -10Q308 -10 262.5 9Q217 28 188 63.5Q159 99 144 150Q129 201 124 266H60V332H120V418Z" glyph-name="currency" horiz-adv-x="600" unicode="&#164;" /><glyph d="M361 438Q328 448 275 448Q230 448 203.5 431Q177 414 162.5 386Q148 358 144 322.5Q140 287 140 250Q140 213 144 177.5Q148 142 162.5 114Q177 86 203.5 69Q230 52 275 52Q321 52 352 59.5Q383 67 415 84V416Q402 423 388.5 428Q375 433 361 438ZM275 510Q344 510 415 469V750H485V0H446L431 41Q392 16 354 3Q316 -10 275 -10Q215 -10 175 10.5Q135 31 112 66Q89 101 79.5 148.5Q70 196 70 250Q70 304 79.5 351.5Q89 399 112 434Q135 469 175 489.5Q215 510 275 510Z" glyph-name="d" horiz-adv-x="565" unicode="d" /><glyph d="M260 61Q310 61 343 74.5Q376 88 396 113Q416 138 424.5 173Q433 208 433 250Q433 292 424.5 327Q416 362 396 387Q376 412 343 425.5Q310 439 260 439H156V61ZM90 0V500H258Q322 500 368 482.5Q414 465 443.5 432.5Q473 400 486.5 353.5Q500 307 500 250Q500 193 486.5 146.5Q473 100 443.5 67.5Q414 35 368 17.5Q322 0 258 0Z" glyph-name="d.smcp" horiz-adv-x="575" /><glyph d="M222 599 363 619V541L222 561ZM164 561 23 541V619L164 599ZM174 609 154 750H232L212 609ZM212 551 243 301H143L174 551Z" glyph-name="dagger" horiz-adv-x="385" unicode="&#8224;" /><glyph d="M212 551 222 480 212 410H174L164 480L174 551ZM164 561 23 541V619L164 599ZM164 362 23 342V420L164 400ZM222 400 363 420V342L222 362ZM174 609 154 750H232L212 609ZM222 599 363 619V541L222 561ZM212 352 243 102H143L174 352Z" glyph-name="daggerdbl" horiz-adv-x="385" unicode="&#8225;" /><glyph d="M660 750 589 575H542L566 750ZM361 438Q328 448 275 448Q230 448 203.5 431Q177 414 162.5 386Q148 358 144 322.5Q140 287 140 250Q140 213 144 177.5Q148 142 162.5 114Q177 86 203.5 69Q230 52 275 52Q321 52 352 59.5Q383 67 415 84V416Q402 423 388.5 428Q375 433 361 438ZM275 510Q344 510 415 469V750H485V0H446L431 41Q392 16 354 3Q316 -10 275 -10Q215 -10 175 10.5Q135 31 112 66Q89 101 79.5 148.5Q70 196 70 250Q70 304 79.5 351.5Q89 399 112 434Q135 469 175 489.5Q215 510 275 510Z" glyph-name="dcaron" horiz-adv-x="565" unicode="&#271;" /><glyph d="M140 750 275 634 410 750H440L315 575H235L110 750ZM260 61Q310 61 343 74.5Q376 88 396 113Q416 138 424.5 173Q433 208 433 250Q433 292 424.5 327Q416 362 396 387Q376 412 343 425.5Q310 439 260 439H156V61ZM90 0V500H258Q322 500 368 482.5Q414 465 443.5 432.5Q473 400 486.5 353.5Q500 307 500 250Q500 193 486.5 146.5Q473 100 443.5 67.5Q414 35 368 17.5Q322 0 258 0Z" glyph-name="dcaron.smcp" horiz-adv-x="575" /><glyph d="M361 438Q328 448 275 448Q230 448 203.5 431Q177 414 162.5 386Q148 358 144 322.5Q140 287 140 250Q140 213 144 177.5Q148 142 162.5 114Q177 86 203.5 69Q230 52 275 52Q321 52 352 59.5Q383 67 415 84V416Q402 423 388.5 428Q375 433 361 438ZM275 510Q344 510 415 469V578H325V629H415V750H485V629H575V578H485V0H446L431 41Q392 16 354 3Q316 -10 275 -10Q215 -10 175 10.5Q135 31 112 66Q89 101 79.5 148.5Q70 196 70 250Q70 304 79.5 351.5Q89 399 112 434Q135 469 175 489.5Q215 510 275 510Z" glyph-name="dcroat" horiz-adv-x="565" unicode="&#273;" /><glyph d="M300 61Q350 61 383 74.5Q416 88 436 113Q456 138 464.5 173Q473 208 473 250Q473 292 464.5 327Q456 362 436 387Q416 412 383 425.5Q350 439 300 439H196V277H316V222H196V61ZM298 500Q362 500 408 482.5Q454 465 483.5 432.5Q513 400 526.5 353.5Q540 307 540 250Q540 193 526.5 146.5Q513 100 483.5 67.5Q454 35 408 17.5Q362 0 298 0H130V222H40V277H130V500Z" glyph-name="dcroat.smcp" horiz-adv-x="615" /><glyph d="M183 705Q147 705 125.5 687Q104 669 104 625Q104 581 125.5 563Q147 545 183 545Q219 545 240.5 563Q262 581 262 625Q262 669 240.5 687Q219 705 183 705ZM183 490Q157 490 132.5 496.5Q108 503 88.5 518.5Q69 534 57 560Q45 586 45 625Q45 665 57 691Q69 717 88.5 732.5Q108 748 132.5 754Q157 760 183 760Q208 760 233 754Q258 748 277.5 732.5Q297 717 309 691Q321 665 321 625Q321 586 309 560Q297 534 277.5 518.5Q258 503 233 496.5Q208 490 183 490Z" glyph-name="degree" horiz-adv-x="366" unicode="&#176;" /><glyph d="M435 685Q435 662 419 646Q403 630 380 630Q357 630 341 646Q325 662 325 685Q325 708 341 724Q357 740 380 740Q403 740 419 724Q435 708 435 685ZM180 630Q157 630 141 646Q125 662 125 685Q125 708 141 724Q157 740 180 740Q203 740 219 724Q235 708 235 685Q235 662 219 646Q203 630 180 630Z" glyph-name="dieresis" horiz-adv-x="540" unicode="&#168;" /><glyph d="M205 496Q205 519 221 535Q237 551 260 551Q283 551 299 535Q315 519 315 496Q315 473 299 457Q283 441 260 441Q237 441 221 457Q205 473 205 496ZM205 186Q205 209 221 225Q237 241 260 241Q283 241 299 225Q315 209 315 186Q315 163 299 147Q283 131 260 131Q237 131 221 147Q205 163 205 186ZM460 374V308H60V374Z" glyph-name="divide" horiz-adv-x="520" unicode="&#247;" /><glyph d="M129 483Q129 460 142 447Q155 434 178 427.5Q201 421 233.5 418Q266 415 304 412Q360 407 403 400Q446 393 475.5 378Q505 363 520 338Q535 313 535 271Q535 193 469.5 154Q404 115 279 115H259L220 0H145L191 121Q155 126 122 132Q89 138 75 145V203Q86 198 109 193.5Q132 189 160.5 184.5Q189 180 220 177.5Q251 175 280 175Q322 175 357 179.5Q392 184 417 195.5Q442 207 455.5 225Q469 243 469 270Q469 295 457 310Q445 325 423 334Q401 343 369.5 347Q338 351 299 354Q242 359 198 365.5Q154 372 124.5 385.5Q95 399 80 422Q65 445 65 483Q65 565 130 600Q195 635 311 635Q317 635 325 635Q333 635 341 634L380 750H455L409 629Q438 625 465.5 620Q493 615 510 607V549Q495 554 472 558.5Q449 563 422 567Q395 571 366 573Q337 575 310 575Q269 575 236 571.5Q203 568 179 557.5Q155 547 142 529Q129 511 129 483Z" glyph-name="dollar" horiz-adv-x="600" unicode="$" /><glyph d="M133 362Q133 345 137.5 332.5Q142 320 154 311Q166 302 188.5 296Q211 290 247 287Q300 282 334.5 270.5Q369 259 388.5 241Q408 223 415.5 199Q423 175 423 144Q423 115 413 87.5Q403 60 379.5 38Q356 16 317.5 3Q279 -10 222 -10L183 -125H108L154 -5Q130 -1 108.5 4Q87 9 73 15V75Q96 67 132.5 59.5Q169 52 223 52Q262 52 287.5 59.5Q313 67 328 80Q343 93 349 109Q355 125 355 143Q355 160 351.5 174.5Q348 189 336 200Q324 211 301.5 218.5Q279 226 242 229Q188 234 153.5 245.5Q119 257 100 274.5Q81 292 74 314Q67 336 67 362Q67 389 76.5 415.5Q86 442 107.5 463Q129 484 165 497Q201 510 254 510L293 625H368L322 505Q342 502 361 497.5Q380 493 398 485V425Q369 435 336 441.5Q303 448 253 448Q216 448 192.5 441.5Q169 435 156 423.5Q143 412 138 396Q133 380 133 362Z" glyph-name="dollar.OP" horiz-adv-x="490" /><glyph d="M280 630Q257 630 241 646Q225 662 225 685Q225 708 241 724Q257 740 280 740Q303 740 319 724Q335 708 335 685Q335 662 319 646Q303 630 280 630Z" glyph-name="dotaccent" horiz-adv-x="540" unicode="&#729;" /><glyph d="M281 -175Q258 -175 242 -159Q226 -143 226 -120Q226 -97 242 -81Q258 -65 281 -65Q304 -65 320 -81Q336 -97 336 -120Q336 -143 320 -159Q304 -175 281 -175Z" glyph-name="dotbelow" horiz-adv-x="602" /><glyph d="M206 -10Q152 -10 124 15Q96 40 96 100V500H164V92Q164 66 173.5 56.5Q183 47 206 47Z" glyph-name="dotlessi" horiz-adv-x="270" unicode="&#305;" /><glyph d="M382 575 257 750H352L432 575ZM232 575 107 750H202L282 575Z" glyph-name="doublegrave" horiz-adv-x="540" /><glyph d="M280 448Q236 448 209.5 433.5Q183 419 168 395Q153 371 147 340Q141 309 140 275H400Q400 308 397.5 339.5Q395 371 383 395Q371 419 347 433.5Q323 448 280 448ZM70 250Q70 304 79 351.5Q88 399 111.5 434Q135 469 176 489.5Q217 510 280 510Q344 510 381.5 489.5Q419 469 438.5 434Q458 399 464 351.5Q470 304 470 250V218H140Q141 185 147.5 155Q154 125 169 102Q184 79 211 65.5Q238 52 280 52Q334 52 371 58Q408 64 445 80V20Q403 1 360 -4.5Q317 -10 280 -10Q217 -10 176 10.5Q135 31 111.5 66Q88 101 79 148.5Q70 196 70 250Z" glyph-name="e" horiz-adv-x="540" unicode="e" /><glyph d="M420 226H156V61H455V0H90V500H455V439H156V287H420Z" glyph-name="e.smcp" horiz-adv-x="530" /><glyph d="M265 575 345 750H440L295 575ZM280 448Q236 448 209.5 433.5Q183 419 168 395Q153 371 147 340Q141 309 140 275H400Q400 308 397.5 339.5Q395 371 383 395Q371 419 347 433.5Q323 448 280 448ZM70 250Q70 304 79 351.5Q88 399 111.5 434Q135 469 176 489.5Q217 510 280 510Q344 510 381.5 489.5Q419 469 438.5 434Q458 399 464 351.5Q470 304 470 250V218H140Q141 185 147.5 155Q154 125 169 102Q184 79 211 65.5Q238 52 280 52Q334 52 371 58Q408 64 445 80V20Q403 1 360 -4.5Q317 -10 280 -10Q217 -10 176 10.5Q135 31 111.5 66Q88 101 79 148.5Q70 196 70 250Z" glyph-name="eacute" horiz-adv-x="540" unicode="&#233;" /><glyph d="M255 575 335 750H430L285 575ZM420 226H156V61H455V0H90V500H455V439H156V287H420Z" glyph-name="eacute.smcp" horiz-adv-x="530" /><glyph d="M280 585Q244 585 216 593.5Q188 602 168 621Q148 640 137 671.5Q126 703 125 750H166Q168 696 195 670.5Q222 645 280 645Q338 645 365 670.5Q392 696 394 750H435Q434 703 423 671.5Q412 640 392 621Q372 602 344 593.5Q316 585 280 585ZM280 448Q236 448 209.5 433.5Q183 419 168 395Q153 371 147 340Q141 309 140 275H400Q400 308 397.5 339.5Q395 371 383 395Q371 419 347 433.5Q323 448 280 448ZM70 250Q70 304 79 351.5Q88 399 111.5 434Q135 469 176 489.5Q217 510 280 510Q344 510 381.5 489.5Q419 469 438.5 434Q458 399 464 351.5Q470 304 470 250V218H140Q141 185 147.5 155Q154 125 169 102Q184 79 211 65.5Q238 52 280 52Q334 52 371 58Q408 64 445 80V20Q403 1 360 -4.5Q317 -10 280 -10Q217 -10 176 10.5Q135 31 111.5 66Q88 101 79 148.5Q70 196 70 250Z" glyph-name="ebreve" horiz-adv-x="540" unicode="&#277;" /><glyph d="M275 565Q239 565 211 575Q183 585 163 607Q143 629 132 664.5Q121 700 120 750H171Q172 716 177.5 692Q183 668 195 653Q207 638 226.5 631.5Q246 625 275 625Q333 625 355 653.5Q377 682 379 750H430Q429 700 418 664.5Q407 629 387 607Q367 585 339 575Q311 565 275 565ZM420 226H156V61H455V0H90V500H455V439H156V287H420Z" glyph-name="ebreve.smcp" horiz-adv-x="530" /><glyph d="M445 750 320 575H240L115 750H145L280 634L415 750ZM280 448Q236 448 209.5 433.5Q183 419 168 395Q153 371 147 340Q141 309 140 275H400Q400 308 397.5 339.5Q395 371 383 395Q371 419 347 433.5Q323 448 280 448ZM70 250Q70 304 79 351.5Q88 399 111.5 434Q135 469 176 489.5Q217 510 280 510Q344 510 381.5 489.5Q419 469 438.5 434Q458 399 464 351.5Q470 304 470 250V218H140Q141 185 147.5 155Q154 125 169 102Q184 79 211 65.5Q238 52 280 52Q334 52 371 58Q408 64 445 80V20Q403 1 360 -4.5Q317 -10 280 -10Q217 -10 176 10.5Q135 31 111.5 66Q88 101 79 148.5Q70 196 70 250Z" glyph-name="ecaron" horiz-adv-x="540" unicode="&#283;" /><glyph d="M140 750 275 634 410 750H440L315 575H235L110 750ZM420 226H156V61H455V0H90V500H455V439H156V287H420Z" glyph-name="ecaron.smcp" horiz-adv-x="530" /><glyph d="M415 575 280 691 145 575H115L240 750H320L445 575ZM280 448Q236 448 209.5 433.5Q183 419 168 395Q153 371 147 340Q141 309 140 275H400Q400 308 397.5 339.5Q395 371 383 395Q371 419 347 433.5Q323 448 280 448ZM70 250Q70 304 79 351.5Q88 399 111.5 434Q135 469 176 489.5Q217 510 280 510Q344 510 381.5 489.5Q419 469 438.5 434Q458 399 464 351.5Q470 304 470 250V218H140Q141 185 147.5 155Q154 125 169 102Q184 79 211 65.5Q238 52 280 52Q334 52 371 58Q408 64 445 80V20Q403 1 360 -4.5Q317 -10 280 -10Q217 -10 176 10.5Q135 31 111.5 66Q88 101 79 148.5Q70 196 70 250Z" glyph-name="ecircumflex" horiz-adv-x="540" unicode="&#234;" /><glyph d="M410 575 275 691 140 575H110L235 750H315L440 575ZM420 226H156V61H455V0H90V500H455V439H156V287H420Z" glyph-name="ecircumflex.smcp" horiz-adv-x="530" /><glyph d="M435 685Q435 662 419 646Q403 630 380 630Q357 630 341 646Q325 662 325 685Q325 708 341 724Q357 740 380 740Q403 740 419 724Q435 708 435 685ZM180 630Q157 630 141 646Q125 662 125 685Q125 708 141 724Q157 740 180 740Q203 740 219 724Q235 708 235 685Q235 662 219 646Q203 630 180 630ZM280 448Q236 448 209.5 433.5Q183 419 168 395Q153 371 147 340Q141 309 140 275H400Q400 308 397.5 339.5Q395 371 383 395Q371 419 347 433.5Q323 448 280 448ZM70 250Q70 304 79 351.5Q88 399 111.5 434Q135 469 176 489.5Q217 510 280 510Q344 510 381.5 489.5Q419 469 438.5 434Q458 399 464 351.5Q470 304 470 250V218H140Q141 185 147.5 155Q154 125 169 102Q184 79 211 65.5Q238 52 280 52Q334 52 371 58Q408 64 445 80V20Q403 1 360 -4.5Q317 -10 280 -10Q217 -10 176 10.5Q135 31 111.5 66Q88 101 79 148.5Q70 196 70 250Z" glyph-name="edieresis" horiz-adv-x="540" unicode="&#235;" /><glyph d="M430 685Q430 662 414 646Q398 630 375 630Q352 630 336 646Q320 662 320 685Q320 708 336 724Q352 740 375 740Q398 740 414 724Q430 708 430 685ZM175 630Q152 630 136 646Q120 662 120 685Q120 708 136 724Q152 740 175 740Q198 740 214 724Q230 708 230 685Q230 662 214 646Q198 630 175 630ZM420 226H156V61H455V0H90V500H455V439H156V287H420Z" glyph-name="edieresis.smcp" horiz-adv-x="530" /><glyph d="M280 630Q257 630 241 646Q225 662 225 685Q225 708 241 724Q257 740 280 740Q303 740 319 724Q335 708 335 685Q335 662 319 646Q303 630 280 630ZM280 448Q236 448 209.5 433.5Q183 419 168 395Q153 371 147 340Q141 309 140 275H400Q400 308 397.5 339.5Q395 371 383 395Q371 419 347 433.5Q323 448 280 448ZM70 250Q70 304 79 351.5Q88 399 111.5 434Q135 469 176 489.5Q217 510 280 510Q344 510 381.5 489.5Q419 469 438.5 434Q458 399 464 351.5Q470 304 470 250V218H140Q141 185 147.5 155Q154 125 169 102Q184 79 211 65.5Q238 52 280 52Q334 52 371 58Q408 64 445 80V20Q403 1 360 -4.5Q317 -10 280 -10Q217 -10 176 10.5Q135 31 111.5 66Q88 101 79 148.5Q70 196 70 250Z" glyph-name="edotaccent" horiz-adv-x="540" unicode="&#279;" /><glyph d="M420 226H156V61H455V0H90V500H455V439H156V287H420ZM225 650Q225 671 239.5 685.5Q254 700 275 700Q296 700 310.5 685.5Q325 671 325 650Q325 629 310.5 614.5Q296 600 275 600Q254 600 239.5 614.5Q225 629 225 650Z" glyph-name="edotaccent.smcp" horiz-adv-x="530" /><glyph d="M265 575 120 750H215L295 575ZM280 448Q236 448 209.5 433.5Q183 419 168 395Q153 371 147 340Q141 309 140 275H400Q400 308 397.5 339.5Q395 371 383 395Q371 419 347 433.5Q323 448 280 448ZM70 250Q70 304 79 351.5Q88 399 111.5 434Q135 469 176 489.5Q217 510 280 510Q344 510 381.5 489.5Q419 469 438.5 434Q458 399 464 351.5Q470 304 470 250V218H140Q141 185 147.5 155Q154 125 169 102Q184 79 211 65.5Q238 52 280 52Q334 52 371 58Q408 64 445 80V20Q403 1 360 -4.5Q317 -10 280 -10Q217 -10 176 10.5Q135 31 111.5 66Q88 101 79 148.5Q70 196 70 250Z" glyph-name="egrave" horiz-adv-x="540" unicode="&#232;" /><glyph d="M280 575 135 750H230L310 575ZM420 226H156V61H455V0H90V500H455V439H156V287H420Z" glyph-name="egrave.smcp" horiz-adv-x="530" /><glyph d="M300 420Q342 420 371.5 431.5Q401 443 419.5 462Q438 481 446 504.5Q454 528 454 552Q454 577 448 603Q442 629 425 650Q408 671 378 684.5Q348 698 300 698Q252 698 222 684.5Q192 671 175 650Q158 629 152 603Q146 577 146 552Q146 528 154 504.5Q162 481 180.5 462Q199 443 228.5 431.5Q258 420 300 420ZM300 358Q212 358 166.5 322.5Q121 287 121 211Q121 184 129 156Q137 128 157.5 104.5Q178 81 212.5 66.5Q247 52 300 52Q353 52 387.5 66.5Q422 81 442.5 104.5Q463 128 471 156Q479 184 479 211Q479 287 433.5 322.5Q388 358 300 358ZM300 -10Q230 -10 181.5 8Q133 26 103 56.5Q73 87 60 127Q47 167 47 211Q47 239 54.5 268Q62 297 77 322Q92 347 115.5 366.5Q139 386 171 395Q122 418 97 460.5Q72 503 72 552Q72 593 83.5 630.5Q95 668 122 697Q149 726 192.5 743Q236 760 300 760Q364 760 407.5 743Q451 726 478 697Q505 668 516.5 630.5Q528 593 528 552Q528 503 503 460.5Q478 418 429 395Q461 386 484.5 366.5Q508 347 523 322Q538 297 545.5 268Q553 239 553 211Q553 167 540 127Q527 87 497 56.5Q467 26 418.5 8Q370 -10 300 -10Z" glyph-name="eight" horiz-adv-x="600" unicode="8" /><glyph d="M300 420Q342 420 371.5 431.5Q401 443 419.5 462Q438 481 446 504.5Q454 528 454 552Q454 577 448 603Q442 629 425 650Q408 671 378 684.5Q348 698 300 698Q252 698 222 684.5Q192 671 175 650Q158 629 152 603Q146 577 146 552Q146 528 154 504.5Q162 481 180.5 462Q199 443 228.5 431.5Q258 420 300 420ZM300 358Q212 358 166.5 322.5Q121 287 121 211Q121 184 129 156Q137 128 157.5 104.5Q178 81 212.5 66.5Q247 52 300 52Q353 52 387.5 66.5Q422 81 442.5 104.5Q463 128 471 156Q479 184 479 211Q479 287 433.5 322.5Q388 358 300 358ZM300 -10Q230 -10 181.5 8Q133 26 103 56.5Q73 87 60 127Q47 167 47 211Q47 239 54.5 268Q62 297 77 322Q92 347 115.5 366.5Q139 386 171 395Q122 418 97 460.5Q72 503 72 552Q72 593 83.5 630.5Q95 668 122 697Q149 726 192.5 743Q236 760 300 760Q364 760 407.5 743Q451 726 478 697Q505 668 516.5 630.5Q528 593 528 552Q528 503 503 460.5Q478 418 429 395Q461 386 484.5 366.5Q508 347 523 322Q538 297 545.5 268Q553 239 553 211Q553 167 540 127Q527 87 497 56.5Q467 26 418.5 8Q370 -10 300 -10Z" glyph-name="eight.LP" horiz-adv-x="600" /><glyph d="M300 420Q342 420 371.5 431.5Q401 443 419.5 462Q438 481 446 504.5Q454 528 454 552Q454 577 448 603Q442 629 425 650Q408 671 378 684.5Q348 698 300 698Q252 698 222 684.5Q192 671 175 650Q158 629 152 603Q146 577 146 552Q146 528 154 504.5Q162 481 180.5 462Q199 443 228.5 431.5Q258 420 300 420ZM300 358Q212 358 166.5 322.5Q121 287 121 211Q121 184 129 156Q137 128 157.5 104.5Q178 81 212.5 66.5Q247 52 300 52Q353 52 387.5 66.5Q422 81 442.5 104.5Q463 128 471 156Q479 184 479 211Q479 287 433.5 322.5Q388 358 300 358ZM300 -10Q230 -10 181.5 8Q133 26 103 56.5Q73 87 60 127Q47 167 47 211Q47 239 54.5 268Q62 297 77 322Q92 347 115.5 366.5Q139 386 171 395Q122 418 97 460.5Q72 503 72 552Q72 593 83.5 630.5Q95 668 122 697Q149 726 192.5 743Q236 760 300 760Q364 760 407.5 743Q451 726 478 697Q505 668 516.5 630.5Q528 593 528 552Q528 503 503 460.5Q478 418 429 395Q461 386 484.5 366.5Q508 347 523 322Q538 297 545.5 268Q553 239 553 211Q553 167 540 127Q527 87 497 56.5Q467 26 418.5 8Q370 -10 300 -10Z" glyph-name="eight.OP" horiz-adv-x="600" /><glyph d="M770 45Q770 68 786 84Q802 100 825 100Q848 100 864 84Q880 68 880 45Q880 22 864 6Q848 -10 825 -10Q802 -10 786 6Q770 22 770 45ZM440 45Q440 68 456 84Q472 100 495 100Q518 100 534 84Q550 68 550 45Q550 22 534 6Q518 -10 495 -10Q472 -10 456 6Q440 22 440 45ZM110 45Q110 68 126 84Q142 100 165 100Q188 100 204 84Q220 68 220 45Q220 22 204 6Q188 -10 165 -10Q142 -10 126 6Q110 22 110 45Z" glyph-name="ellipsis" horiz-adv-x="990" unicode="&#8230;" /><glyph d="M143 680V745H417V680ZM280 448Q236 448 209.5 433.5Q183 419 168 395Q153 371 147 340Q141 309 140 275H400Q400 308 397.5 339.5Q395 371 383 395Q371 419 347 433.5Q323 448 280 448ZM70 250Q70 304 79 351.5Q88 399 111.5 434Q135 469 176 489.5Q217 510 280 510Q344 510 381.5 489.5Q419 469 438.5 434Q458 399 464 351.5Q470 304 470 250V218H140Q141 185 147.5 155Q154 125 169 102Q184 79 211 65.5Q238 52 280 52Q334 52 371 58Q408 64 445 80V20Q403 1 360 -4.5Q317 -10 280 -10Q217 -10 176 10.5Q135 31 111.5 66Q88 101 79 148.5Q70 196 70 250Z" glyph-name="emacron" horiz-adv-x="540" unicode="&#275;" /><glyph d="M138 640H412V575H138ZM420 226H156V61H455V0H90V500H455V439H156V287H420Z" glyph-name="emacron.smcp" horiz-adv-x="530" /><glyph d="M940 308H60V374H940Z" glyph-name="emdash" horiz-adv-x="1000" unicode="&#8212;" /><glyph glyph-name="emspace" horiz-adv-x="1000" unicode="&#8195;" /><glyph d="M440 308H60V374H440Z" glyph-name="endash" horiz-adv-x="500" unicode="&#8211;" /><glyph d="M285 448Q236 448 207 440Q178 432 150 416V0H80V500H119L134 458Q204 510 285 510Q375 510 415 471Q455 432 455 360V-96Q455 -135 437 -165Q419 -195 390.5 -215.5Q362 -236 326.5 -247Q291 -258 257 -260V-201Q279 -198 302 -190.5Q325 -183 343.5 -169.5Q362 -156 373.5 -136Q385 -116 385 -87V363Q385 412 358.5 430Q332 448 285 448Z" glyph-name="eng" horiz-adv-x="530" unicode="&#331;" /><glyph d="M510 -96Q510 -135 492 -165Q474 -195 445.5 -215.5Q417 -236 381.5 -247Q346 -258 312 -260V-201Q334 -198 358 -190.5Q382 -183 401.5 -169Q421 -155 433.5 -134.5Q446 -114 446 -85V24L155 380L156 0H90V500H134L445 120L444 500H510Z" glyph-name="eng.smcp" horiz-adv-x="600" /><glyph glyph-name="enspace" horiz-adv-x="500" unicode="&#8194;" /><glyph d="M280 448Q236 448 209.5 433.5Q183 419 168 395Q153 371 147 340Q141 309 140 275H400Q400 308 397.5 339.5Q395 371 383 395Q371 419 347 433.5Q323 448 280 448ZM70 250Q70 304 79 351.5Q88 399 111.5 434Q135 469 176 489.5Q217 510 280 510Q344 510 381.5 489.5Q419 469 438.5 434Q458 399 464 351.5Q470 304 470 250V218H140Q141 185 147.5 155Q154 125 169 102Q184 79 211 65.5Q238 52 280 52Q334 52 371 58Q408 64 445 80V20L435 15Q370 -16 343.5 -50Q317 -84 317 -122Q317 -145 329.5 -162Q342 -179 371 -179Q388 -179 402.5 -176.5Q417 -174 428 -171V-219Q415 -224 397 -227Q379 -230 357 -230Q312 -230 284 -205Q256 -180 256 -135Q256 -54 329 -8Q316 -9 303.5 -9.5Q291 -10 280 -10Q217 -10 176 10.5Q135 31 111.5 66Q88 101 79 148.5Q70 196 70 250Z" glyph-name="eogonek" horiz-adv-x="540" unicode="&#281;" /><glyph d="M420 226H156V61H455V0Q406 -20 377.5 -51.5Q349 -83 349 -122Q349 -145 361.5 -162Q374 -179 403 -179Q420 -179 434.5 -176.5Q449 -174 460 -171V-219Q447 -224 429 -227Q411 -230 389 -230Q344 -230 316 -205Q288 -180 288 -135Q288 -47 375 0H90V500H455V439H156V287H420Z" glyph-name="eogonek.smcp" horiz-adv-x="530" /><glyph d="M460 242H60V308H460ZM460 374H60V440H460Z" glyph-name="equal" horiz-adv-x="520" unicode="=" /><glyph d="M425 250Q425 292 420 328.5Q415 365 399 391.5Q383 418 353.5 433Q324 448 275 448Q225 448 195.5 433Q166 418 150.5 391.5Q135 365 130 328.5Q125 292 125 250Q125 208 130 171.5Q135 135 150.5 108.5Q166 82 195.5 67Q225 52 275 52Q324 52 353.5 67Q383 82 399 108.5Q415 135 420 171.5Q425 208 425 250ZM425 691 348 652Q375 623 400.5 584.5Q426 546 446.5 497Q467 448 480 386.5Q493 325 495 250Q495 193 485 145Q475 97 449.5 62.5Q424 28 381.5 9Q339 -10 275 -10Q211 -10 168.5 9Q126 28 101 62.5Q76 97 65.5 145Q55 193 55 250Q55 307 65.5 355Q76 403 101 437.5Q126 472 168.5 491Q211 510 275 510Q306 510 332 503Q358 496 381 484Q364 524 340 558Q316 592 288 621L135 543V602L247 659Q212 689 176.5 711.5Q141 734 112 750H226Q242 740 263.5 725.5Q285 711 308 690L425 750Z" glyph-name="eth" horiz-adv-x="550" unicode="&#240;" /><glyph d="M300 61Q350 61 383 74.5Q416 88 436 113Q456 138 464.5 173Q473 208 473 250Q473 292 464.5 327Q456 362 436 387Q416 412 383 425.5Q350 439 300 439H196V277H316V222H196V61ZM298 500Q362 500 408 482.5Q454 465 483.5 432.5Q513 400 526.5 353.5Q540 307 540 250Q540 193 526.5 146.5Q513 100 483.5 67.5Q454 35 408 17.5Q362 0 298 0H130V222H40V277H130V500Z" glyph-name="eth.smcp" horiz-adv-x="615" /><glyph d="M55 45Q55 68 71 84Q87 100 110 100Q133 100 149 84Q165 68 165 45Q165 22 149 6Q133 -10 110 -10Q87 -10 71 6Q55 22 55 45ZM90 210 55 750H165L130 210Z" glyph-name="exclam" horiz-adv-x="220" unicode="!" /><glyph d="M165 455Q165 432 149 416Q133 400 110 400Q87 400 71 416Q55 432 55 455Q55 478 71 494Q87 510 110 510Q133 510 149 494Q165 478 165 455ZM130 290 165 -250H55L90 290Z" glyph-name="exclamdown" horiz-adv-x="220" unicode="&#161;" /><glyph d="M387 690Q372 694 356 696Q340 698 317 698Q268 698 236 678.5Q204 659 204 610V500H362V445H204V0H137V445H37V476L137 505V610Q137 682 180 721Q223 760 317 760Q333 760 352.5 758.5Q372 757 387 753Z" glyph-name="f" horiz-adv-x="407" unicode="f" /><glyph d="M410 226H156V0H90V500H445V439H156V287H410Z" glyph-name="f.smcp" horiz-adv-x="510" /><glyph d="M613 -10Q559 -10 531 15Q503 40 503 100V500H571V92Q571 66 580.5 56.5Q590 47 613 47ZM387 690Q372 694 356 696Q340 698 317 698Q268 698 236 678.5Q204 659 204 610V500H362V445H204V0H137V445H37V476L137 505V610Q137 682 180 721Q223 760 317 760Q333 760 352.5 758.5Q372 757 387 753Z" glyph-name="f_dotlessi" horiz-adv-x="677" /><glyph d="M482 685Q482 708 498 724Q514 740 537 740Q560 740 576 724Q592 708 592 685Q592 662 576 646Q560 630 537 630Q514 630 498 646Q482 662 482 685ZM613 -10Q559 -10 531 15Q503 40 503 100V500H571V92Q571 66 580.5 56.5Q590 47 613 47ZM387 690Q372 694 356 696Q340 698 317 698Q268 698 236 678.5Q204 659 204 610V500H362V445H204V0H137V445H37V476L137 505V610Q137 682 180 721Q223 760 317 760Q333 760 352.5 758.5Q372 757 387 753Z" glyph-name="fi" horiz-adv-x="677" unicode="&#64257;" /><glyph d="M540 308H60V374H540Z" glyph-name="figuredash" horiz-adv-x="600" unicode="&#8210;" /><glyph glyph-name="figurespace" horiz-adv-x="600" unicode="&#8199;" /><glyph d="M239 52Q270 52 306 58Q342 64 372 83.5Q402 103 422 138.5Q442 174 442 233Q442 290 424.5 320.5Q407 351 379 365Q351 379 315.5 381Q280 383 244 383H104V750H499V688H172V443Q195 445 221 446.5Q247 448 267 448Q312 448 356.5 441.5Q401 435 436 412.5Q471 390 492.5 347.5Q514 305 514 233Q514 152 487 104Q460 56 419 30.5Q378 5 329.5 -2.5Q281 -10 238 -10Q183 -10 141 -0.5Q99 9 73 22V84Q101 73 141 62.5Q181 52 239 52Z" glyph-name="five" horiz-adv-x="600" unicode="5" /><glyph d="M239 52Q270 52 306 58Q342 64 372 83.5Q402 103 422 138.5Q442 174 442 233Q442 290 424.5 320.5Q407 351 379 365Q351 379 315.5 381Q280 383 244 383H104V750H499V688H172V443Q195 445 221 446.5Q247 448 267 448Q312 448 356.5 441.5Q401 435 436 412.5Q471 390 492.5 347.5Q514 305 514 233Q514 152 487 104Q460 56 419 30.5Q378 5 329.5 -2.5Q281 -10 238 -10Q183 -10 141 -0.5Q99 9 73 22V84Q101 73 141 62.5Q181 52 239 52Z" glyph-name="five.LP" horiz-adv-x="600" /><glyph d="M219 -198Q250 -198 286 -192Q322 -186 352 -166.5Q382 -147 402 -111.5Q422 -76 422 -17Q422 40 404.5 70.5Q387 101 359 115Q331 129 295.5 131Q260 133 224 133H84V500H479V438H152V193Q175 195 201 196.5Q227 198 247 198Q292 198 336.5 191.5Q381 185 416 162.5Q451 140 472.5 97.5Q494 55 494 -17Q494 -98 467 -146Q440 -194 399 -219.5Q358 -245 309.5 -252.5Q261 -260 218 -260Q163 -260 121 -250.5Q79 -241 53 -228V-166Q81 -177 121 -187.5Q161 -198 219 -198Z" glyph-name="five.OP" horiz-adv-x="530" /><glyph d="M613 -10Q559 -10 531 15Q503 40 503 100V750H571V92Q571 66 580.5 56.5Q590 47 613 47ZM387 690Q372 694 356 696Q340 698 317 698Q268 698 236 678.5Q204 659 204 610V500H362V445H204V0H137V445H37V476L137 505V610Q137 682 180 721Q223 760 317 760Q333 760 352.5 758.5Q372 757 387 753Z" glyph-name="fl" horiz-adv-x="677" unicode="&#64258;" /><glyph d="M310 760Q347 760 387 754.5Q427 749 460 735V675Q431 685 397 691.5Q363 698 310 698Q261 698 229 672Q197 646 197 595V500H435V445H197V0H130V445H30V476L130 505V595Q130 671 173 715.5Q216 760 310 760Z" glyph-name="florin" horiz-adv-x="530" unicode="&#402;" /><glyph d="M310 510Q347 510 387 504.5Q427 499 460 485V425Q431 435 397 441.5Q363 448 310 448Q261 448 229 422Q197 396 197 345V250H435V195H197V-250H130V195H30V226L130 255V345Q130 421 173 465.5Q216 510 310 510Z" glyph-name="florin.OP" horiz-adv-x="530" /><glyph d="M380 312V641L141 312ZM448 312H555V250H448V0H380V250H55V292L395 760H448Z" glyph-name="four" horiz-adv-x="600" unicode="4" /><glyph d="M380 312V641L141 312ZM448 312H555V250H448V0H380V250H55V292L395 760H448Z" glyph-name="four.LP" horiz-adv-x="600" /><glyph d="M380 62V391L141 62ZM448 62H555V0H448V-250H380V0H55V42L395 510H448Z" glyph-name="four.OP" horiz-adv-x="600" /><glyph glyph-name="fourperemspace" horiz-adv-x="250" unicode="&#8197;" /><glyph d="M-50 0 480 750H557L27 0Z" glyph-name="fraction" horiz-adv-x="507" unicode="&#8260;" /><glyph d="M257 196Q301 196 326.5 206.5Q352 217 365.5 234.5Q379 252 383 274.5Q387 297 387 322Q387 347 383 369.5Q379 392 365.5 409.5Q352 427 326.5 437.5Q301 448 257 448Q213 448 187.5 437.5Q162 427 148.5 409.5Q135 392 131 369.5Q127 347 127 322Q127 297 131 274.5Q135 252 148.5 234.5Q162 217 187.5 206.5Q213 196 257 196ZM220 5Q196 -1 175 -10Q154 -19 137.5 -32Q121 -45 111.5 -63Q102 -81 102 -105Q102 -133 111.5 -151Q121 -169 140.5 -179.5Q160 -190 189 -194Q218 -198 257 -198Q294 -198 328.5 -193Q363 -188 389.5 -176Q416 -164 431.5 -143Q447 -122 447 -90Q447 -52 429.5 -34.5Q412 -17 366 -12ZM257 134Q219 134 191 140Q183 132 177.5 122Q172 112 172 103Q172 68 210 64L380 44Q451 36 484 6Q517 -24 517 -90Q517 -136 496 -168Q475 -200 439 -220.5Q403 -241 356 -250.5Q309 -260 257 -260Q152 -260 92.5 -224Q33 -188 33 -105Q33 -80 41.5 -60Q50 -40 64 -24.5Q78 -9 97 2.5Q116 14 136 23V24Q122 34 113 49.5Q104 65 104 90Q104 111 115 128Q126 145 142 158Q97 183 79.5 226Q62 269 62 322Q62 361 71 395Q80 429 102.5 454.5Q125 480 162.5 495Q200 510 257 510Q280 510 300 507.5Q320 505 337 500H507V462L423 438Q439 414 445.5 384.5Q452 355 452 322Q452 283 443 249Q434 215 411.5 189.5Q389 164 351.5 149Q314 134 257 134Z" glyph-name="g" horiz-adv-x="540" unicode="g" /><glyph d="M310 52Q345 52 373 55Q401 58 424 63V198H315V259H490V23Q475 15 453.5 9Q432 3 408 -1Q384 -5 358.5 -7.5Q333 -10 310 -10Q247 -10 202 10.5Q157 31 129 66Q101 101 88 148.5Q75 196 75 250Q75 304 88 351.5Q101 399 129 434Q157 469 202 489.5Q247 510 310 510Q332 510 356 508Q380 506 402.5 502.5Q425 499 445 493Q465 487 480 480V420Q451 431 411 439.5Q371 448 310 448Q263 448 231 431Q199 414 180 386Q161 358 153 322.5Q145 287 145 250Q145 213 153 177.5Q161 142 180 114Q199 86 231 69Q263 52 310 52Z" glyph-name="g.smcp" horiz-adv-x="580" /><glyph d="M257 585Q221 585 193 593.5Q165 602 145 621Q125 640 114 671.5Q103 703 102 750H143Q145 696 172 670.5Q199 645 257 645Q315 645 342 670.5Q369 696 371 750H412Q411 703 400 671.5Q389 640 369 621Q349 602 321 593.5Q293 585 257 585ZM257 196Q301 196 326.5 206.5Q352 217 365.5 234.5Q379 252 383 274.5Q387 297 387 322Q387 347 383 369.5Q379 392 365.5 409.5Q352 427 326.5 437.5Q301 448 257 448Q213 448 187.5 437.5Q162 427 148.5 409.5Q135 392 131 369.5Q127 347 127 322Q127 297 131 274.5Q135 252 148.5 234.5Q162 217 187.5 206.5Q213 196 257 196ZM220 5Q196 -1 175 -10Q154 -19 137.5 -32Q121 -45 111.5 -63Q102 -81 102 -105Q102 -133 111.5 -151Q121 -169 140.5 -179.5Q160 -190 189 -194Q218 -198 257 -198Q294 -198 328.5 -193Q363 -188 389.5 -176Q416 -164 431.5 -143Q447 -122 447 -90Q447 -52 429.5 -34.5Q412 -17 366 -12ZM257 134Q219 134 191 140Q183 132 177.5 122Q172 112 172 103Q172 68 210 64L380 44Q451 36 484 6Q517 -24 517 -90Q517 -136 496 -168Q475 -200 439 -220.5Q403 -241 356 -250.5Q309 -260 257 -260Q152 -260 92.5 -224Q33 -188 33 -105Q33 -80 41.5 -60Q50 -40 64 -24.5Q78 -9 97 2.5Q116 14 136 23V24Q122 34 113 49.5Q104 65 104 90Q104 111 115 128Q126 145 142 158Q97 183 79.5 226Q62 269 62 322Q62 361 71 395Q80 429 102.5 454.5Q125 480 162.5 495Q200 510 257 510Q280 510 300 507.5Q320 505 337 500H507V462L423 438Q439 414 445.5 384.5Q452 355 452 322Q452 283 443 249Q434 215 411.5 189.5Q389 164 351.5 149Q314 134 257 134Z" glyph-name="gbreve" horiz-adv-x="540" unicode="&#287;" /><glyph d="M300 565Q264 565 236 575Q208 585 188 607Q168 629 157 664.5Q146 700 145 750H196Q197 716 202.5 692Q208 668 220 653Q232 638 251.5 631.5Q271 625 300 625Q358 625 380 653.5Q402 682 404 750H455Q454 700 443 664.5Q432 629 412 607Q392 585 364 575Q336 565 300 565ZM310 52Q345 52 373 55Q401 58 424 63V198H315V259H490V23Q475 15 453.5 9Q432 3 408 -1Q384 -5 358.5 -7.5Q333 -10 310 -10Q247 -10 202 10.5Q157 31 129 66Q101 101 88 148.5Q75 196 75 250Q75 304 88 351.5Q101 399 129 434Q157 469 202 489.5Q247 510 310 510Q332 510 356 508Q380 506 402.5 502.5Q425 499 445 493Q465 487 480 480V420Q451 431 411 439.5Q371 448 310 448Q263 448 231 431Q199 414 180 386Q161 358 153 322.5Q145 287 145 250Q145 213 153 177.5Q161 142 180 114Q199 86 231 69Q263 52 310 52Z" glyph-name="gbreve.smcp" horiz-adv-x="580" /><glyph d="M392 575 257 691 122 575H92L217 750H297L422 575ZM257 196Q301 196 326.5 206.5Q352 217 365.5 234.5Q379 252 383 274.5Q387 297 387 322Q387 347 383 369.5Q379 392 365.5 409.5Q352 427 326.5 437.5Q301 448 257 448Q213 448 187.5 437.5Q162 427 148.5 409.5Q135 392 131 369.5Q127 347 127 322Q127 297 131 274.5Q135 252 148.5 234.5Q162 217 187.5 206.5Q213 196 257 196ZM220 5Q196 -1 175 -10Q154 -19 137.5 -32Q121 -45 111.5 -63Q102 -81 102 -105Q102 -133 111.5 -151Q121 -169 140.5 -179.5Q160 -190 189 -194Q218 -198 257 -198Q294 -198 328.5 -193Q363 -188 389.5 -176Q416 -164 431.5 -143Q447 -122 447 -90Q447 -52 429.5 -34.5Q412 -17 366 -12ZM257 134Q219 134 191 140Q183 132 177.5 122Q172 112 172 103Q172 68 210 64L380 44Q451 36 484 6Q517 -24 517 -90Q517 -136 496 -168Q475 -200 439 -220.5Q403 -241 356 -250.5Q309 -260 257 -260Q152 -260 92.5 -224Q33 -188 33 -105Q33 -80 41.5 -60Q50 -40 64 -24.5Q78 -9 97 2.5Q116 14 136 23V24Q122 34 113 49.5Q104 65 104 90Q104 111 115 128Q126 145 142 158Q97 183 79.5 226Q62 269 62 322Q62 361 71 395Q80 429 102.5 454.5Q125 480 162.5 495Q200 510 257 510Q280 510 300 507.5Q320 505 337 500H507V462L423 438Q439 414 445.5 384.5Q452 355 452 322Q452 283 443 249Q434 215 411.5 189.5Q389 164 351.5 149Q314 134 257 134Z" glyph-name="gcircumflex" horiz-adv-x="540" unicode="&#285;" /><glyph d="M435 575 300 691 165 575H135L260 750H340L465 575ZM310 52Q345 52 373 55Q401 58 424 63V198H315V259H490V23Q475 15 453.5 9Q432 3 408 -1Q384 -5 358.5 -7.5Q333 -10 310 -10Q247 -10 202 10.5Q157 31 129 66Q101 101 88 148.5Q75 196 75 250Q75 304 88 351.5Q101 399 129 434Q157 469 202 489.5Q247 510 310 510Q332 510 356 508Q380 506 402.5 502.5Q425 499 445 493Q465 487 480 480V420Q451 431 411 439.5Q371 448 310 448Q263 448 231 431Q199 414 180 386Q161 358 153 322.5Q145 287 145 250Q145 213 153 177.5Q161 142 180 114Q199 86 231 69Q263 52 310 52Z" glyph-name="gcircumflex.smcp" horiz-adv-x="580" /><glyph d="M297 750 279 670Q295 664 303.5 650.5Q312 637 312 620Q312 597 296 581Q280 565 257 565Q234 565 218 581Q202 597 202 620Q202 635 208 647L255 750ZM257 196Q301 196 326.5 206.5Q352 217 365.5 234.5Q379 252 383 274.5Q387 297 387 322Q387 347 383 369.5Q379 392 365.5 409.5Q352 427 326.5 437.5Q301 448 257 448Q213 448 187.5 437.5Q162 427 148.5 409.5Q135 392 131 369.5Q127 347 127 322Q127 297 131 274.5Q135 252 148.5 234.5Q162 217 187.5 206.5Q213 196 257 196ZM220 5Q196 -1 175 -10Q154 -19 137.5 -32Q121 -45 111.5 -63Q102 -81 102 -105Q102 -133 111.5 -151Q121 -169 140.5 -179.5Q160 -190 189 -194Q218 -198 257 -198Q294 -198 328.5 -193Q363 -188 389.5 -176Q416 -164 431.5 -143Q447 -122 447 -90Q447 -52 429.5 -34.5Q412 -17 366 -12ZM257 134Q219 134 191 140Q183 132 177.5 122Q172 112 172 103Q172 68 210 64L380 44Q451 36 484 6Q517 -24 517 -90Q517 -136 496 -168Q475 -200 439 -220.5Q403 -241 356 -250.5Q309 -260 257 -260Q152 -260 92.5 -224Q33 -188 33 -105Q33 -80 41.5 -60Q50 -40 64 -24.5Q78 -9 97 2.5Q116 14 136 23V24Q122 34 113 49.5Q104 65 104 90Q104 111 115 128Q126 145 142 158Q97 183 79.5 226Q62 269 62 322Q62 361 71 395Q80 429 102.5 454.5Q125 480 162.5 495Q200 510 257 510Q280 510 300 507.5Q320 505 337 500H507V462L423 438Q439 414 445.5 384.5Q452 355 452 322Q452 283 443 249Q434 215 411.5 189.5Q389 164 351.5 149Q314 134 257 134Z" glyph-name="gcommaaccent" horiz-adv-x="540" unicode="&#291;" /><glyph d="M258 -250 276 -170Q260 -164 251.5 -150.5Q243 -137 243 -120Q243 -97 259 -81Q275 -65 298 -65Q321 -65 337 -81Q353 -97 353 -120Q353 -135 347 -147L300 -250ZM310 52Q345 52 373 55Q401 58 424 63V198H315V259H490V23Q475 15 453.5 9Q432 3 408 -1Q384 -5 358.5 -7.5Q333 -10 310 -10Q247 -10 202 10.5Q157 31 129 66Q101 101 88 148.5Q75 196 75 250Q75 304 88 351.5Q101 399 129 434Q157 469 202 489.5Q247 510 310 510Q332 510 356 508Q380 506 402.5 502.5Q425 499 445 493Q465 487 480 480V420Q451 431 411 439.5Q371 448 310 448Q263 448 231 431Q199 414 180 386Q161 358 153 322.5Q145 287 145 250Q145 213 153 177.5Q161 142 180 114Q199 86 231 69Q263 52 310 52Z" glyph-name="gcommaaccent.smcp" horiz-adv-x="580" /><glyph d="M257 630Q234 630 218 646Q202 662 202 685Q202 708 218 724Q234 740 257 740Q280 740 296 724Q312 708 312 685Q312 662 296 646Q280 630 257 630ZM257 196Q301 196 326.5 206.5Q352 217 365.5 234.5Q379 252 383 274.5Q387 297 387 322Q387 347 383 369.5Q379 392 365.5 409.5Q352 427 326.5 437.5Q301 448 257 448Q213 448 187.5 437.5Q162 427 148.5 409.5Q135 392 131 369.5Q127 347 127 322Q127 297 131 274.5Q135 252 148.5 234.5Q162 217 187.5 206.5Q213 196 257 196ZM220 5Q196 -1 175 -10Q154 -19 137.5 -32Q121 -45 111.5 -63Q102 -81 102 -105Q102 -133 111.5 -151Q121 -169 140.5 -179.5Q160 -190 189 -194Q218 -198 257 -198Q294 -198 328.5 -193Q363 -188 389.5 -176Q416 -164 431.5 -143Q447 -122 447 -90Q447 -52 429.5 -34.5Q412 -17 366 -12ZM257 134Q219 134 191 140Q183 132 177.5 122Q172 112 172 103Q172 68 210 64L380 44Q451 36 484 6Q517 -24 517 -90Q517 -136 496 -168Q475 -200 439 -220.5Q403 -241 356 -250.5Q309 -260 257 -260Q152 -260 92.5 -224Q33 -188 33 -105Q33 -80 41.5 -60Q50 -40 64 -24.5Q78 -9 97 2.5Q116 14 136 23V24Q122 34 113 49.5Q104 65 104 90Q104 111 115 128Q126 145 142 158Q97 183 79.5 226Q62 269 62 322Q62 361 71 395Q80 429 102.5 454.5Q125 480 162.5 495Q200 510 257 510Q280 510 300 507.5Q320 505 337 500H507V462L423 438Q439 414 445.5 384.5Q452 355 452 322Q452 283 443 249Q434 215 411.5 189.5Q389 164 351.5 149Q314 134 257 134Z" glyph-name="gdotaccent" horiz-adv-x="540" unicode="&#289;" /><glyph d="M300 630Q277 630 261 646Q245 662 245 685Q245 708 261 724Q277 740 300 740Q323 740 339 724Q355 708 355 685Q355 662 339 646Q323 630 300 630ZM310 52Q345 52 373 55Q401 58 424 63V198H315V259H490V23Q475 15 453.5 9Q432 3 408 -1Q384 -5 358.5 -7.5Q333 -10 310 -10Q247 -10 202 10.5Q157 31 129 66Q101 101 88 148.5Q75 196 75 250Q75 304 88 351.5Q101 399 129 434Q157 469 202 489.5Q247 510 310 510Q332 510 356 508Q380 506 402.5 502.5Q425 499 445 493Q465 487 480 480V420Q451 431 411 439.5Q371 448 310 448Q263 448 231 431Q199 414 180 386Q161 358 153 322.5Q145 287 145 250Q145 213 153 177.5Q161 142 180 114Q199 86 231 69Q263 52 310 52Z" glyph-name="gdotaccent.smcp" horiz-adv-x="580" /><glyph d="M319 698Q241 698 203.5 668.5Q166 639 166 595V0H99V594Q99 630 112 660Q125 690 152 712.5Q179 735 220.5 747.5Q262 760 319 760Q376 760 418 747.5Q460 735 487 712.5Q514 690 527 660Q540 630 540 594Q540 562 533 538Q526 514 511 495.5Q496 477 471.5 463.5Q447 450 411 441Q364 429 344.5 413Q325 397 325 362Q325 345 330 333Q335 321 348 312Q361 303 383 297Q405 291 439 287Q492 281 526.5 269.5Q561 258 580.5 240.5Q600 223 607.5 199Q615 175 615 144Q615 115 605 87.5Q595 60 571.5 38Q548 16 509.5 3Q471 -10 414 -10Q396 -10 375 -8Q354 -6 333.5 -2.5Q313 1 295 5.5Q277 10 265 15V75Q288 67 324.5 59.5Q361 52 415 52Q454 52 479.5 59.5Q505 67 520 80Q535 93 541 109Q547 125 547 143Q547 160 543.5 174.5Q540 189 528 200Q516 211 493.5 218.5Q471 226 434 229Q380 234 345.5 245.5Q311 257 292 274.5Q273 292 266 314Q259 336 259 362Q259 390 265 411Q271 432 287 448.5Q303 465 329 477Q355 489 396 499Q422 505 437 515Q452 525 460 538Q468 551 470 565.5Q472 580 472 595Q472 639 434.5 668.5Q397 698 319 698Z" glyph-name="germandbls" horiz-adv-x="680" unicode="&#223;" /><glyph d="M679 358Q679 339 686.5 327Q694 315 710.5 307Q727 299 752.5 294.5Q778 290 814 287Q867 282 903.5 272Q940 262 962.5 245.5Q985 229 995 204.5Q1005 180 1005 146Q1005 114 994 85.5Q983 57 957.5 36Q932 15 890.5 2.5Q849 -10 789 -10Q770 -10 746.5 -8Q723 -6 699.5 -2Q676 2 656.5 7Q637 12 625 17V75Q648 66 691 58Q734 50 790 50Q873 50 906 74.5Q939 99 939 145Q939 186 911 204.5Q883 223 809 229Q755 234 717.5 243Q680 252 657.5 267Q635 282 625 304Q615 326 615 358Q615 392 626 420Q637 448 661.5 468Q686 488 725.5 499Q765 510 821 510Q859 510 903 504.5Q947 499 980 485V427Q951 437 912 443.5Q873 450 820 450Q741 450 710 428Q679 406 679 358ZM139 358Q139 339 146.5 327Q154 315 170.5 307Q187 299 212.5 294.5Q238 290 274 287Q327 282 363.5 272Q400 262 422.5 245.5Q445 229 455 204.5Q465 180 465 146Q465 114 454 85.5Q443 57 417.5 36Q392 15 350.5 2.5Q309 -10 249 -10Q230 -10 206.5 -8Q183 -6 159.5 -2Q136 2 116.5 7Q97 12 85 17V75Q108 66 151 58Q194 50 250 50Q333 50 366 74.5Q399 99 399 145Q399 186 371 204.5Q343 223 269 229Q215 234 177.5 243Q140 252 117.5 267Q95 282 85 304Q75 326 75 358Q75 392 86 420Q97 448 121.5 468Q146 488 185.5 499Q225 510 281 510Q319 510 363 504.5Q407 499 440 485V427Q411 437 372 443.5Q333 450 280 450Q201 450 170 428Q139 406 139 358Z" glyph-name="germandbls.smcp" horiz-adv-x="1080" /><glyph d="M286 575 141 750H236L316 575Z" glyph-name="grave" horiz-adv-x="540" unicode="`" /><glyph d="M55 204 236 341 55 478V541L305 374V308L55 141Z" glyph-name="greater" horiz-adv-x="365" unicode="&gt;" /><glyph d="M810 356 299 -10V76L673 329L694 342H60V408H694L673 421L299 674V760L810 394Z" glyph-name="greaterequal" horiz-adv-x="860" unicode="&#8805;" /><glyph d="M245 283 435 423V347L314 250L435 153V76L245 217ZM55 283 245 423V347L124 250L245 153V76L55 217Z" glyph-name="guillemotleft" horiz-adv-x="495" unicode="&#171;" /><glyph d="M250 217 60 76V153L181 250L60 347V423L250 283ZM440 217 250 76V153L371 250L250 347V423L440 283Z" glyph-name="guillemotright" horiz-adv-x="495" unicode="&#187;" /><glyph d="M55 283 245 423V347L124 250L245 153V76L55 217Z" glyph-name="guilsinglleft" horiz-adv-x="305" unicode="&#8249;" /><glyph d="M250 217 60 76V153L181 250L60 347V423L250 283Z" glyph-name="guilsinglright" horiz-adv-x="305" unicode="&#8250;" /><glyph d="M385 363Q385 412 358.5 430Q332 448 285 448Q236 448 206 440Q176 432 148 416V0H80V750H148V469Q180 490 215 500Q250 510 285 510Q375 510 415 471Q455 432 455 360V0H385Z" glyph-name="h" horiz-adv-x="530" unicode="h" /><glyph d="M444 0V226H156V0H90V500H156V287H444V500H510V0Z" glyph-name="h.smcp" horiz-adv-x="600" /><glyph glyph-name="hairspace" horiz-adv-x="50" unicode="&#8202;" /><glyph d="M80 654V750H148V654H285V603H148V469Q180 490 215 500Q250 510 285 510Q375 510 415 471Q455 432 455 360V0H385V363Q385 412 358.5 430Q332 448 285 448Q236 448 206 440Q176 432 148 416V0H80V603H-10V654Z" glyph-name="hbar" horiz-adv-x="530" unicode="&#295;" /><glyph d="M444 287V362H156V287ZM444 0V226H156V0H90V500H156V417H444V500H510V0Z" glyph-name="hbar.smcp" horiz-adv-x="600" /><glyph d="M249 825 114 941 -21 825H-51L74 1000H154L279 825ZM385 363Q385 412 358.5 430Q332 448 285 448Q236 448 206 440Q176 432 148 416V0H80V750H148V469Q180 490 215 500Q250 510 285 510Q375 510 415 471Q455 432 455 360V0H385Z" glyph-name="hcircumflex" horiz-adv-x="530" unicode="&#293;" /><glyph d="M435 575 300 691 165 575H135L260 750H340L465 575ZM444 0V226H156V0H90V500H156V287H444V500H510V0Z" glyph-name="hcircumflex.smcp" horiz-adv-x="600" /><glyph d="M170 575 250 750H345L220 575ZM320 575 400 750H495L370 575Z" glyph-name="hungarumlaut" horiz-adv-x="540" unicode="&#733;" /><glyph d="M310 308H60V374H310Z" glyph-name="hyphen" horiz-adv-x="370" unicode="-" /><glyph d="M75 685Q75 708 91 724Q107 740 130 740Q153 740 169 724Q185 708 185 685Q185 662 169 646Q153 630 130 630Q107 630 91 646Q75 662 75 685ZM206 -10Q152 -10 124 15Q96 40 96 100V500H164V92Q164 66 173.5 56.5Q183 47 206 47Z" glyph-name="i" horiz-adv-x="270" unicode="i" /><glyph d="M112 0V500H178V0Z" glyph-name="i.smcp" horiz-adv-x="290" /><glyph d="M115 575 195 750H290L145 575ZM206 -10Q152 -10 124 15Q96 40 96 100V500H164V92Q164 66 173.5 56.5Q183 47 206 47Z" glyph-name="iacute" horiz-adv-x="270" unicode="&#237;" /><glyph d="M130 575 210 750H305L160 575ZM112 0V500H178V0Z" glyph-name="iacute.smcp" horiz-adv-x="290" /><glyph d="M130 585Q94 585 66 593.5Q38 602 18 621Q-2 640 -13 671.5Q-24 703 -25 750H16Q18 696 45 670.5Q72 645 130 645Q188 645 215 670.5Q242 696 244 750H285Q284 703 273 671.5Q262 640 242 621Q222 602 194 593.5Q166 585 130 585ZM206 -10Q152 -10 124 15Q96 40 96 100V500H164V92Q164 66 173.5 56.5Q183 47 206 47Z" glyph-name="ibreve" horiz-adv-x="270" unicode="&#301;" /><glyph d="M145 565Q109 565 81 575Q53 585 33 607Q13 629 2 664.5Q-9 700 -10 750H41Q42 716 47.5 692Q53 668 65 653Q77 638 96.5 631.5Q116 625 145 625Q203 625 225 653.5Q247 682 249 750H300Q299 700 288 664.5Q277 629 257 607Q237 585 209 575Q181 565 145 565ZM112 0V500H178V0Z" glyph-name="ibreve.smcp" horiz-adv-x="290" /><glyph d="M265 575 130 691 -5 575H-35L90 750H170L295 575ZM206 -10Q152 -10 124 15Q96 40 96 100V500H164V92Q164 66 173.5 56.5Q183 47 206 47Z" glyph-name="icircumflex" horiz-adv-x="270" unicode="&#238;" /><glyph d="M280 575 145 691 10 575H-20L105 750H185L310 575ZM112 0V500H178V0Z" glyph-name="icircumflex.smcp" horiz-adv-x="290" /><glyph d="M285 685Q285 662 269 646Q253 630 230 630Q207 630 191 646Q175 662 175 685Q175 708 191 724Q207 740 230 740Q253 740 269 724Q285 708 285 685ZM30 630Q7 630 -9 646Q-25 662 -25 685Q-25 708 -9 724Q7 740 30 740Q53 740 69 724Q85 708 85 685Q85 662 69 646Q53 630 30 630ZM206 -10Q152 -10 124 15Q96 40 96 100V500H164V92Q164 66 173.5 56.5Q183 47 206 47Z" glyph-name="idieresis" horiz-adv-x="270" unicode="&#239;" /><glyph d="M300 685Q300 662 284 646Q268 630 245 630Q222 630 206 646Q190 662 190 685Q190 708 206 724Q222 740 245 740Q268 740 284 724Q300 708 300 685ZM45 630Q22 630 6 646Q-10 662 -10 685Q-10 708 6 724Q22 740 45 740Q68 740 84 724Q100 708 100 685Q100 662 84 646Q68 630 45 630ZM112 0V500H178V0Z" glyph-name="idieresis.smcp" horiz-adv-x="290" /><glyph d="M75 685Q75 708 91 724Q107 740 130 740Q153 740 169 724Q185 708 185 685Q185 662 169 646Q153 630 130 630Q107 630 91 646Q75 662 75 685ZM206 -10Q152 -10 124 15Q96 40 96 100V500H164V92Q164 66 173.5 56.5Q183 47 206 47Z" glyph-name="idotaccent" horiz-adv-x="270" /><glyph d="M145 630Q122 630 106 646Q90 662 90 685Q90 708 106 724Q122 740 145 740Q168 740 184 724Q200 708 200 685Q200 662 184 646Q168 630 145 630ZM112 0V500H178V0Z" glyph-name="idotaccent.smcp" horiz-adv-x="290" /><glyph d="M115 575 -30 750H65L145 575ZM206 -10Q152 -10 124 15Q96 40 96 100V500H164V92Q164 66 173.5 56.5Q183 47 206 47Z" glyph-name="igrave" horiz-adv-x="270" unicode="&#236;" /><glyph d="M130 575 -15 750H80L160 575ZM112 0V500H178V0Z" glyph-name="igrave.smcp" horiz-adv-x="290" /><glyph d="M345 685Q345 708 361 724Q377 740 400 740Q423 740 439 724Q455 708 455 685Q455 662 439 646Q423 630 400 630Q377 630 361 646Q345 662 345 685ZM238 -201Q260 -198 283 -190.5Q306 -183 324.5 -169.5Q343 -156 354.5 -136Q366 -116 366 -87V500H434V-96Q434 -135 416 -165Q398 -195 370 -215.5Q342 -236 307 -247Q272 -258 238 -260ZM75 685Q75 708 91 724Q107 740 130 740Q153 740 169 724Q185 708 185 685Q185 662 169 646Q153 630 130 630Q107 630 91 646Q75 662 75 685ZM206 -10Q152 -10 124 15Q96 40 96 100V500H164V92Q164 66 173.5 56.5Q183 47 206 47Z" glyph-name="ij" horiz-adv-x="530" unicode="&#307;" /><glyph d="M340 55Q358 50 372.5 48.5Q387 47 410 47Q459 47 489 65Q519 83 519 132V500H585V140Q585 68 544.5 29Q504 -10 410 -10Q394 -10 374.5 -8.5Q355 -7 340 -3ZM112 0V500H178V0Z" glyph-name="ij.smcp" horiz-adv-x="695" /><glyph d="M-7 680V745H267V680ZM201 -10Q147 -10 119 15Q91 40 91 100V500H159V92Q159 66 168.5 56.5Q178 47 201 47Z" glyph-name="imacron" horiz-adv-x="270" unicode="&#299;" /><glyph d="M8 640H282V575H8ZM112 0V500H178V0Z" glyph-name="imacron.smcp" horiz-adv-x="290" /><glyph d="M52 681Q52 662 68 654.5Q84 647 120 644Q174 639 195 622Q216 605 216 571Q216 539 192 516Q168 493 107 493Q88 493 62.5 496.5Q37 500 25 505V534Q37 530 58.5 526.5Q80 523 108 523Q150 523 166.5 535Q183 547 183 570Q183 591 169 601Q155 611 117 614Q63 619 41.5 634Q20 649 20 681Q20 715 43.5 736Q67 757 124 757Q143 757 164.5 754.5Q186 752 203 745V716Q189 721 169 724Q149 727 123 727Q83 727 67.5 716Q52 705 52 681ZM386 532 301 705 303 500H270V750H313L400 568L488 750H530V500H498L500 705L415 532Z" glyph-name="infinity" horiz-adv-x="575" unicode="&#8734;" /><glyph d="M151 66H759V684H151ZM80 750H830V0H80Z" glyph-name="integral" horiz-adv-x="910" unicode="&#8747;" /><glyph d="M280 760Q351 760 392 717.5Q433 675 435 575H384Q382 643 360 671.5Q338 700 280 700Q251 700 231.5 693.5Q212 687 200 672Q188 657 182.5 633Q177 609 176 575H125Q127 675 168 717.5Q209 760 280 760Z" glyph-name="invertedbreve" horiz-adv-x="602" /><glyph d="M75 685Q75 708 91 724Q107 740 130 740Q153 740 169 724Q185 708 185 685Q185 662 169 646Q153 630 130 630Q107 630 91 646Q75 662 75 685ZM206 -10Q187 -16 170 -26.5Q153 -37 139.5 -51Q126 -65 118 -82Q110 -99 110 -119Q110 -145 124 -160Q138 -175 172 -175Q187 -175 200.5 -173Q214 -171 225 -168Q237 -165 248 -161V-213Q240 -218 217 -225Q194 -232 153 -232Q132 -232 112.5 -226Q93 -220 77 -207.5Q61 -195 51.5 -176Q42 -157 42 -131Q42 -93 66.5 -56.5Q91 -20 135 6Q96 30 96 100V500H164V92Q164 66 173.5 56.5Q183 47 206 47Z" glyph-name="iogonek" horiz-adv-x="270" unicode="&#303;" /><glyph d="M178 0Q165 -10 151.5 -23Q138 -36 127 -51.5Q116 -67 109 -85Q102 -103 102 -122Q102 -145 114.5 -162Q127 -179 156 -179Q173 -179 187.5 -176.5Q202 -174 213 -171V-219Q200 -224 182 -227Q164 -230 142 -230Q97 -230 69 -205Q41 -180 41 -135Q41 -92 59 -59Q77 -26 112 6V500H178Z" glyph-name="iogonek.smcp" horiz-adv-x="290" /><glyph d="M205 659Q224 659 234 664.5Q244 670 248.5 677.5Q253 685 253.5 694Q254 703 254 711L311 710Q315 657 285 628.5Q255 600 201 600Q170 600 151 610.5Q132 621 117.5 633Q103 645 89 655.5Q75 666 54 666Q35 666 25.5 660.5Q16 655 11.5 647.5Q7 640 6.5 630.5Q6 621 6 614L-51 615Q-55 668 -25.5 696.5Q4 725 58 725Q89 725 108 714.5Q127 704 141.5 692Q156 680 170 669.5Q184 659 205 659ZM201 -10Q147 -10 119 15Q91 40 91 100V500H159V92Q159 66 168.5 56.5Q178 47 201 47Z" glyph-name="itilde" horiz-adv-x="270" unicode="&#297;" /><glyph d="M220 659Q239 659 249 664.5Q259 670 263.5 677.5Q268 685 268.5 694Q269 703 269 711L326 710Q330 657 300 628.5Q270 600 216 600Q185 600 166 610.5Q147 621 132.5 633Q118 645 104 655.5Q90 666 69 666Q50 666 40.5 660.5Q31 655 26.5 647.5Q22 640 21.5 630.5Q21 621 21 614L-36 615Q-40 668 -10.5 696.5Q19 725 73 725Q104 725 123 714.5Q142 704 156.5 692Q171 680 185 669.5Q199 659 220 659ZM112 0V500H178V0Z" glyph-name="itilde.smcp" horiz-adv-x="290" /><glyph d="M75 685Q75 708 91 724Q107 740 130 740Q153 740 169 724Q185 708 185 685Q185 662 169 646Q153 630 130 630Q107 630 91 646Q75 662 75 685ZM-32 -201Q-10 -198 13 -190.5Q36 -183 54.5 -169.5Q73 -156 84.5 -136Q96 -116 96 -87V500H164V-96Q164 -135 146 -165Q128 -195 100 -215.5Q72 -236 37 -247Q2 -258 -32 -260Z" glyph-name="j" horiz-adv-x="260" unicode="j" /><glyph d="M50 55Q68 50 82.5 48.5Q97 47 120 47Q169 47 199 65Q229 83 229 132V500H295V140Q295 68 254.5 29Q214 -10 120 -10Q104 -10 84.5 -8.5Q65 -7 50 -3Z" glyph-name="j.smcp" horiz-adv-x="405" /><glyph d="M265 575 130 691 -5 575H-35L90 750H170L295 575ZM-32 -201Q-10 -198 13 -190.5Q36 -183 54.5 -169.5Q73 -156 84.5 -136Q96 -116 96 -87V500H164V-96Q164 -135 146 -165Q128 -195 100 -215.5Q72 -236 37 -247Q2 -258 -32 -260Z" glyph-name="jcircumflex" horiz-adv-x="260" unicode="&#309;" /><glyph d="M397 575 262 691 127 575H97L222 750H302L427 575ZM50 55Q68 50 82.5 48.5Q97 47 120 47Q169 47 199 65Q229 83 229 132V500H295V140Q295 68 254.5 29Q214 -10 120 -10Q104 -10 84.5 -8.5Q65 -7 50 -3Z" glyph-name="jcircumflex.smcp" horiz-adv-x="405" /><glyph d="M253 294 495 0H408L211 254L148 194V0H80V750H148V276L374 500H468Z" glyph-name="k" horiz-adv-x="530" unicode="k" /><glyph d="M261 294 503 0H416L219 254L156 194V0H90V500H156V273L382 500H476Z" glyph-name="k.smcp" horiz-adv-x="545" /><glyph d="M213 -251 231 -171Q215 -165 206.5 -151.5Q198 -138 198 -121Q198 -98 214 -82Q230 -66 253 -66Q276 -66 292 -82Q308 -98 308 -121Q308 -136 302 -148L255 -251ZM253 294 495 0H408L211 254L148 194V0H80V750H148V276L374 500H468Z" glyph-name="kcommaaccent" horiz-adv-x="530" unicode="&#311;" /><glyph d="M238 -250 256 -170Q240 -164 231.5 -150.5Q223 -137 223 -120Q223 -97 239 -81Q255 -65 278 -65Q301 -65 317 -81Q333 -97 333 -120Q333 -135 327 -147L280 -250ZM261 294 503 0H416L219 254L156 194V0H90V500H156V273L382 500H476Z" glyph-name="kcommaaccent.smcp" horiz-adv-x="545" /><glyph d="M253 294 495 0H408L211 254L148 194V0H80V500H148V276L374 500H468Z" glyph-name="kgreenlandic" horiz-adv-x="530" unicode="&#312;" /><glyph d="M206 -10Q152 -10 124 15Q96 40 96 100V750H164V92Q164 66 173.5 56.5Q183 47 206 47Z" glyph-name="l" horiz-adv-x="270" unicode="l" /><glyph d="M156 61H455V0H90V500H156Z" glyph-name="l.smcp" horiz-adv-x="510" /><glyph d="M115 825 195 1000H290L145 825ZM206 -10Q152 -10 124 15Q96 40 96 100V750H164V92Q164 66 173.5 56.5Q183 47 206 47Z" glyph-name="lacute" horiz-adv-x="270" unicode="&#314;" /><glyph d="M108 575 188 750H283L138 575ZM156 61H455V0H90V500H156Z" glyph-name="lacute.smcp" horiz-adv-x="510" /><glyph d="M339 750 268 575H221L245 750ZM206 -10Q152 -10 124 15Q96 40 96 100V750H164V92Q164 66 173.5 56.5Q183 47 206 47Z" glyph-name="lcaron" horiz-adv-x="270" unicode="&#318;" /><glyph d="M381 600 310 425H263L287 600ZM156 61H455V0H90V500H156Z" glyph-name="lcaron.smcp" horiz-adv-x="510" /><glyph d="M90 -251 108 -171Q92 -165 83.5 -151.5Q75 -138 75 -121Q75 -98 91 -82Q107 -66 130 -66Q153 -66 169 -82Q185 -98 185 -121Q185 -136 179 -148L132 -251ZM206 -10Q152 -10 124 15Q96 40 96 100V750H164V92Q164 66 173.5 56.5Q183 47 206 47Z" glyph-name="lcommaaccent" horiz-adv-x="270" unicode="&#316;" /><glyph d="M233 -250 251 -170Q235 -164 226.5 -150.5Q218 -137 218 -120Q218 -97 234 -81Q250 -65 273 -65Q296 -65 312 -81Q328 -97 328 -120Q328 -135 322 -147L275 -250ZM156 61H455V0H90V500H156Z" glyph-name="lcommaaccent.smcp" horiz-adv-x="510" /><glyph d="M260 300Q260 321 274.5 335.5Q289 350 310 350Q331 350 345.5 335.5Q360 321 360 300Q360 279 345.5 264.5Q331 250 310 250Q289 250 274.5 264.5Q260 279 260 300ZM206 -10Q152 -10 124 15Q96 40 96 100V750H164V92Q164 66 173.5 56.5Q183 47 206 47Z" glyph-name="ldot" horiz-adv-x="350" unicode="&#320;" /><glyph d="M320 275Q320 296 334.5 310.5Q349 325 370 325Q391 325 405.5 310.5Q420 296 420 275Q420 254 405.5 239.5Q391 225 370 225Q349 225 334.5 239.5Q320 254 320 275ZM156 61H455V0H90V500H156Z" glyph-name="ldot.smcp" horiz-adv-x="510" /><glyph d="M310 141 60 308V374L310 541V478L129 341L310 204Z" glyph-name="less" horiz-adv-x="365" unicode="&lt;" /><glyph d="M50 394 561 760V674L187 421L166 408H800V342H166L187 329L561 76V-10L50 356Z" glyph-name="lessequal" horiz-adv-x="860" unicode="&#8804;" /><glyph d="M80 0V500H580V0Z" glyph-name="logicalnot" horiz-adv-x="660" unicode="&#172;" /><glyph d="M227 100 180 147 408 375 180 603 227 650 455 422 683 650 730 603 502 375 730 147 683 100 455 328ZM151 66H759V684H151ZM80 750H830V0H80Z" glyph-name="lozenge" horiz-adv-x="910" unicode="&#9674;" /><glyph d="M164 92Q164 66 173.5 56.5Q183 47 206 47V-10Q152 -10 124 15Q96 40 96 100V330L6 273V337L96 394V750H164V438L264 502V438L164 374Z" glyph-name="lslash" horiz-adv-x="270" unicode="&#322;" /><glyph d="M196 189V61H495V0H130V152L40 101V164L130 215V500H196V252L378 355V292Z" glyph-name="lslash.smcp" horiz-adv-x="550" /><glyph d="M670 363Q670 412 644 430Q618 448 575 448Q552 448 533.5 446Q515 444 499 439.5Q483 435 468.5 429Q454 423 439 415Q445 391 445 363V0H375V363Q375 412 349 430Q323 448 280 448Q236 448 207.5 440.5Q179 433 150 418V0H80V500H119L134 459Q170 485 207.5 497.5Q245 510 280 510Q381 510 420 453Q459 480 498 495Q537 510 575 510Q656 510 698 472.5Q740 435 740 360V0H670Z" glyph-name="m" horiz-adv-x="815" unicode="m" /><glyph d="M321 65 151 409 155 0H90V500H175L350 137L525 500H610V0H545L549 409L379 65Z" glyph-name="m.smcp" horiz-adv-x="700" /><glyph d="M143 640H417V575H143Z" glyph-name="macron" horiz-adv-x="602" unicode="&#175;" /><glyph d="M60 308V374H460V308Z" glyph-name="minus" horiz-adv-x="520" unicode="&#8722;" /><glyph d="M148 -250H80V500H150V134Q150 85 176.5 67Q203 49 250 49Q299 49 328 57Q357 65 385 81V500H455V0H416L401 42Q331 -10 250 -10Q218 -10 190.5 -4Q163 2 148 13Z" glyph-name="mu" horiz-adv-x="535" unicode="&#181;" /><glyph d="M95 223 213 341 95 459 142 506 260 388 378 506 425 459 307 341 425 223 378 176 260 294 142 176Z" glyph-name="multiply" horiz-adv-x="520" unicode="&#215;" /><glyph d="M385 363Q385 412 358.5 430Q332 448 285 448Q236 448 207 440Q178 432 150 416V0H80V500H119L134 458Q204 510 285 510Q375 510 415 471Q455 432 455 360V0H385Z" glyph-name="n" horiz-adv-x="530" unicode="n" /><glyph d="M466 0 155 380 156 0H90V500H134L445 120L444 500H510V0Z" glyph-name="n.smcp" horiz-adv-x="600" /><glyph d="M249 575 329 750H424L299 575ZM385 363Q385 412 358.5 430Q332 448 285 448Q236 448 207 440Q178 432 150 416V0H80V500H119L134 458Q204 510 285 510Q375 510 415 471Q455 432 455 360V0H385Z" glyph-name="nacute" horiz-adv-x="530" unicode="&#324;" /><glyph d="M284 575 364 750H459L314 575ZM466 0 155 380 156 0H90V500H134L445 120L444 500H510V0Z" glyph-name="nacute.smcp" horiz-adv-x="600" /><glyph d="M433 750 308 575H228L103 750H133L268 634L403 750ZM385 363Q385 412 358.5 430Q332 448 285 448Q236 448 207 440Q178 432 150 416V0H80V500H119L134 458Q204 510 285 510Q375 510 415 471Q455 432 455 360V0H385Z" glyph-name="ncaron" horiz-adv-x="530" unicode="&#328;" /><glyph d="M465 750 340 575H260L135 750H185L300 634L415 750ZM466 0 155 380 156 0H90V500H134L445 120L444 500H510V0Z" glyph-name="ncaron.smcp" horiz-adv-x="600" /><glyph d="M228 -251 246 -171Q230 -165 221.5 -151.5Q213 -138 213 -121Q213 -98 229 -82Q245 -66 268 -66Q291 -66 307 -82Q323 -98 323 -121Q323 -136 317 -148L270 -251ZM385 363Q385 412 358.5 430Q332 448 285 448Q236 448 207 440Q178 432 150 416V0H80V500H119L134 458Q204 510 285 510Q375 510 415 471Q455 432 455 360V0H385Z" glyph-name="ncommaaccent" horiz-adv-x="530" unicode="&#326;" /><glyph d="M359 -75 288 -250H241L265 -75ZM466 0 155 380 156 0H90V500H134L445 120L444 500H510V0Z" glyph-name="ncommaaccent.smcp" horiz-adv-x="600" /><glyph d="M466 519Q466 549 459.5 580.5Q453 612 435 638.5Q417 665 383.5 681.5Q350 698 296 698Q245 698 214 679.5Q183 661 166.5 634Q150 607 145 575.5Q140 544 140 519Q140 493 144 462Q148 431 164 404Q180 377 211 358.5Q242 340 296 340Q349 340 382 357Q415 374 434 400Q453 426 459.5 458Q466 490 466 519ZM265 54Q324 54 364.5 78Q405 102 429.5 144.5Q454 187 465 246Q476 305 476 376Q467 359 452 341.5Q437 324 414.5 310Q392 296 362.5 287Q333 278 296 278Q219 278 174 301.5Q129 325 106 360.5Q83 396 76.5 438.5Q70 481 70 519Q70 557 78 599.5Q86 642 110 677.5Q134 713 178.5 736.5Q223 760 296 760Q377 760 425 734.5Q473 709 498.5 662.5Q524 616 532 550.5Q540 485 540 405Q540 313 528 236.5Q516 160 485 105Q454 50 400.5 20Q347 -10 265 -10Q192 -10 150.5 1.5Q109 13 90 24V90Q118 76 161.5 65Q205 54 265 54Z" glyph-name="nine" horiz-adv-x="600" unicode="9" /><glyph d="M466 519Q466 549 459.5 580.5Q453 612 435 638.5Q417 665 383.5 681.5Q350 698 296 698Q245 698 214 679.5Q183 661 166.5 634Q150 607 145 575.5Q140 544 140 519Q140 493 144 462Q148 431 164 404Q180 377 211 358.5Q242 340 296 340Q349 340 382 357Q415 374 434 400Q453 426 459.5 458Q466 490 466 519ZM265 54Q324 54 364.5 78Q405 102 429.5 144.5Q454 187 465 246Q476 305 476 376Q467 359 452 341.5Q437 324 414.5 310Q392 296 362.5 287Q333 278 296 278Q219 278 174 301.5Q129 325 106 360.5Q83 396 76.5 438.5Q70 481 70 519Q70 557 78 599.5Q86 642 110 677.5Q134 713 178.5 736.5Q223 760 296 760Q377 760 425 734.5Q473 709 498.5 662.5Q524 616 532 550.5Q540 485 540 405Q540 313 528 236.5Q516 160 485 105Q454 50 400.5 20Q347 -10 265 -10Q192 -10 150.5 1.5Q109 13 90 24V90Q118 76 161.5 65Q205 54 265 54Z" glyph-name="nine.LP" horiz-adv-x="600" /><glyph d="M466 269Q466 299 459.5 330.5Q453 362 435 388.5Q417 415 383.5 431.5Q350 448 296 448Q245 448 214 429.5Q183 411 166.5 384Q150 357 145 325.5Q140 294 140 269Q140 243 144 212Q148 181 164 154Q180 127 211 108.5Q242 90 296 90Q349 90 382 107Q415 124 434 150Q453 176 459.5 208Q466 240 466 269ZM265 -196Q324 -196 364.5 -172Q405 -148 429.5 -105.5Q454 -63 465 -4Q476 55 476 126Q467 109 452 91.5Q437 74 414.5 60Q392 46 362.5 37Q333 28 296 28Q219 28 174 51.5Q129 75 106 110.5Q83 146 76.5 188.5Q70 231 70 269Q70 307 78 349.5Q86 392 110 427.5Q134 463 178.5 486.5Q223 510 296 510Q377 510 425 484.5Q473 459 498.5 412.5Q524 366 532 300.5Q540 235 540 155Q540 63 528 -13.5Q516 -90 485 -145Q454 -200 400.5 -230Q347 -260 265 -260Q192 -260 150.5 -248.5Q109 -237 90 -226V-160Q118 -174 161.5 -185Q205 -196 265 -196Z" glyph-name="nine.OP" horiz-adv-x="605" /><glyph d="M80 0V750H830V0Z" glyph-name="notequal" horiz-adv-x="910" unicode="&#8800;" /><glyph d="M355 659Q374 659 384 664.5Q394 670 398.5 677.5Q403 685 403.5 694Q404 703 404 711L461 710Q465 657 435 628.5Q405 600 351 600Q320 600 301 610.5Q282 621 267.5 633Q253 645 239 655.5Q225 666 204 666Q185 666 175.5 660.5Q166 655 161.5 647.5Q157 640 156.5 630.5Q156 621 156 614L99 615Q95 668 124.5 696.5Q154 725 208 725Q239 725 258 714.5Q277 704 291.5 692Q306 680 320 669.5Q334 659 355 659ZM385 363Q385 412 358.5 430Q332 448 285 448Q236 448 207 440Q178 432 150 416V0H80V500H119L134 458Q204 510 285 510Q375 510 415 471Q455 432 455 360V0H385Z" glyph-name="ntilde" horiz-adv-x="530" unicode="&#241;" /><glyph d="M375 659Q394 659 404 664.5Q414 670 418.5 677.5Q423 685 423.5 694Q424 703 424 711L481 710Q485 657 455 628.5Q425 600 371 600Q340 600 321 610.5Q302 621 287.5 633Q273 645 259 655.5Q245 666 224 666Q205 666 195.5 660.5Q186 655 181.5 647.5Q177 640 176.5 630.5Q176 621 176 614L119 615Q115 668 144.5 696.5Q174 725 228 725Q259 725 278 714.5Q297 704 311.5 692Q326 680 340 669.5Q354 659 375 659ZM466 0 155 380 156 0H90V500H134L445 120L444 500H510V0Z" glyph-name="ntilde.smcp" horiz-adv-x="600" /><glyph d="M192 442H343L388 559H237ZM318 376H167L119 250H52L100 376H15L35 442H125L170 559H85L105 625H195L243 750H310L262 625H413L461 750H528L480 625H570L550 559H455L410 442H500L480 376H385L337 250H270Z" glyph-name="numbersign" horiz-adv-x="585" unicode="#" /><glyph d="M192 192H343L388 309H237ZM318 126H167L119 0H52L100 126H15L35 192H125L170 309H85L105 375H195L243 500H310L262 375H413L461 500H528L480 375H570L550 309H455L410 192H500L480 126H385L337 0H270Z" glyph-name="numbersign.OP" horiz-adv-x="585" /><glyph d="M420 250Q420 292 416.5 328.5Q413 365 399 391.5Q385 418 357 433Q329 448 280 448Q230 448 202 433Q174 418 160.5 391.5Q147 365 143.5 328.5Q140 292 140 250Q140 208 143.5 171.5Q147 135 160.5 108.5Q174 82 202 67Q230 52 280 52Q329 52 357 67Q385 82 399 108.5Q413 135 416.5 171.5Q420 208 420 250ZM490 250Q490 193 481.5 145Q473 97 449.5 62.5Q426 28 385 9Q344 -10 280 -10Q216 -10 175 9Q134 28 111 62.5Q88 97 79 145Q70 193 70 250Q70 307 79 355Q88 403 111 437.5Q134 472 175 491Q216 510 280 510Q344 510 385 491Q426 472 449.5 437.5Q473 403 481.5 355Q490 307 490 250Z" glyph-name="o" horiz-adv-x="560" unicode="o" /><glyph d="M468 250Q468 292 461 329Q454 366 436 393Q418 420 386.5 435.5Q355 451 305 451Q254 451 222.5 435.5Q191 420 173 393Q155 366 148.5 329Q142 292 142 250Q142 208 148.5 171Q155 134 173 107Q191 80 222.5 64.5Q254 49 305 49Q355 49 386.5 64.5Q418 80 436 107Q454 134 461 171Q468 208 468 250ZM535 250Q535 193 523 145Q511 97 484 62.5Q457 28 413 9Q369 -10 305 -10Q241 -10 197 9Q153 28 126 62.5Q99 97 87 145Q75 193 75 250Q75 307 87 355Q99 403 126 437.5Q153 472 197 491Q241 510 305 510Q369 510 413 491Q457 472 484 437.5Q511 403 523 355Q535 307 535 250Z" glyph-name="o.smcp" horiz-adv-x="610" /><glyph d="M265 575 345 750H440L295 575ZM420 250Q420 292 416.5 328.5Q413 365 399 391.5Q385 418 357 433Q329 448 280 448Q230 448 202 433Q174 418 160.5 391.5Q147 365 143.5 328.5Q140 292 140 250Q140 208 143.5 171.5Q147 135 160.5 108.5Q174 82 202 67Q230 52 280 52Q329 52 357 67Q385 82 399 108.5Q413 135 416.5 171.5Q420 208 420 250ZM490 250Q490 193 481.5 145Q473 97 449.5 62.5Q426 28 385 9Q344 -10 280 -10Q216 -10 175 9Q134 28 111 62.5Q88 97 79 145Q70 193 70 250Q70 307 79 355Q88 403 111 437.5Q134 472 175 491Q216 510 280 510Q344 510 385 491Q426 472 449.5 437.5Q473 403 481.5 355Q490 307 490 250Z" glyph-name="oacute" horiz-adv-x="560" unicode="&#243;" /><glyph d="M290 575 370 750H465L320 575ZM468 250Q468 292 461 329Q454 366 436 393Q418 420 386.5 435.5Q355 451 305 451Q254 451 222.5 435.5Q191 420 173 393Q155 366 148.5 329Q142 292 142 250Q142 208 148.5 171Q155 134 173 107Q191 80 222.5 64.5Q254 49 305 49Q355 49 386.5 64.5Q418 80 436 107Q454 134 461 171Q468 208 468 250ZM535 250Q535 193 523 145Q511 97 484 62.5Q457 28 413 9Q369 -10 305 -10Q241 -10 197 9Q153 28 126 62.5Q99 97 87 145Q75 193 75 250Q75 307 87 355Q99 403 126 437.5Q153 472 197 491Q241 510 305 510Q369 510 413 491Q457 472 484 437.5Q511 403 523 355Q535 307 535 250Z" glyph-name="oacute.smcp" horiz-adv-x="610" /><glyph d="M280 585Q244 585 216 593.5Q188 602 168 621Q148 640 137 671.5Q126 703 125 750H166Q168 696 195 670.5Q222 645 280 645Q338 645 365 670.5Q392 696 394 750H435Q434 703 423 671.5Q412 640 392 621Q372 602 344 593.5Q316 585 280 585ZM420 250Q420 292 416.5 328.5Q413 365 399 391.5Q385 418 357 433Q329 448 280 448Q230 448 202 433Q174 418 160.5 391.5Q147 365 143.5 328.5Q140 292 140 250Q140 208 143.5 171.5Q147 135 160.5 108.5Q174 82 202 67Q230 52 280 52Q329 52 357 67Q385 82 399 108.5Q413 135 416.5 171.5Q420 208 420 250ZM490 250Q490 193 481.5 145Q473 97 449.5 62.5Q426 28 385 9Q344 -10 280 -10Q216 -10 175 9Q134 28 111 62.5Q88 97 79 145Q70 193 70 250Q70 307 79 355Q88 403 111 437.5Q134 472 175 491Q216 510 280 510Q344 510 385 491Q426 472 449.5 437.5Q473 403 481.5 355Q490 307 490 250Z" glyph-name="obreve" horiz-adv-x="560" unicode="&#335;" /><glyph d="M305 565Q269 565 241 575Q213 585 193 607Q173 629 162 664.5Q151 700 150 750H201Q202 716 207.5 692Q213 668 225 653Q237 638 256.5 631.5Q276 625 305 625Q363 625 385 653.5Q407 682 409 750H460Q459 700 448 664.5Q437 629 417 607Q397 585 369 575Q341 565 305 565ZM468 250Q468 292 461 329Q454 366 436 393Q418 420 386.5 435.5Q355 451 305 451Q254 451 222.5 435.5Q191 420 173 393Q155 366 148.5 329Q142 292 142 250Q142 208 148.5 171Q155 134 173 107Q191 80 222.5 64.5Q254 49 305 49Q355 49 386.5 64.5Q418 80 436 107Q454 134 461 171Q468 208 468 250ZM535 250Q535 193 523 145Q511 97 484 62.5Q457 28 413 9Q369 -10 305 -10Q241 -10 197 9Q153 28 126 62.5Q99 97 87 145Q75 193 75 250Q75 307 87 355Q99 403 126 437.5Q153 472 197 491Q241 510 305 510Q369 510 413 491Q457 472 484 437.5Q511 403 523 355Q535 307 535 250Z" glyph-name="obreve.smcp" horiz-adv-x="610" /><glyph d="M415 575 280 691 145 575H115L240 750H320L445 575ZM420 250Q420 292 416.5 328.5Q413 365 399 391.5Q385 418 357 433Q329 448 280 448Q230 448 202 433Q174 418 160.5 391.5Q147 365 143.5 328.5Q140 292 140 250Q140 208 143.5 171.5Q147 135 160.5 108.5Q174 82 202 67Q230 52 280 52Q329 52 357 67Q385 82 399 108.5Q413 135 416.5 171.5Q420 208 420 250ZM490 250Q490 193 481.5 145Q473 97 449.5 62.5Q426 28 385 9Q344 -10 280 -10Q216 -10 175 9Q134 28 111 62.5Q88 97 79 145Q70 193 70 250Q70 307 79 355Q88 403 111 437.5Q134 472 175 491Q216 510 280 510Q344 510 385 491Q426 472 449.5 437.5Q473 403 481.5 355Q490 307 490 250Z" glyph-name="ocircumflex" horiz-adv-x="560" unicode="&#244;" /><glyph d="M440 575 305 691 170 575H140L265 750H345L470 575ZM468 250Q468 292 461 329Q454 366 436 393Q418 420 386.5 435.5Q355 451 305 451Q254 451 222.5 435.5Q191 420 173 393Q155 366 148.5 329Q142 292 142 250Q142 208 148.5 171Q155 134 173 107Q191 80 222.5 64.5Q254 49 305 49Q355 49 386.5 64.5Q418 80 436 107Q454 134 461 171Q468 208 468 250ZM535 250Q535 193 523 145Q511 97 484 62.5Q457 28 413 9Q369 -10 305 -10Q241 -10 197 9Q153 28 126 62.5Q99 97 87 145Q75 193 75 250Q75 307 87 355Q99 403 126 437.5Q153 472 197 491Q241 510 305 510Q369 510 413 491Q457 472 484 437.5Q511 403 523 355Q535 307 535 250Z" glyph-name="ocircumflex.smcp" horiz-adv-x="610" /><glyph d="M435 685Q435 662 419 646Q403 630 380 630Q357 630 341 646Q325 662 325 685Q325 708 341 724Q357 740 380 740Q403 740 419 724Q435 708 435 685ZM180 630Q157 630 141 646Q125 662 125 685Q125 708 141 724Q157 740 180 740Q203 740 219 724Q235 708 235 685Q235 662 219 646Q203 630 180 630ZM420 250Q420 292 416.5 328.5Q413 365 399 391.5Q385 418 357 433Q329 448 280 448Q230 448 202 433Q174 418 160.5 391.5Q147 365 143.5 328.5Q140 292 140 250Q140 208 143.5 171.5Q147 135 160.5 108.5Q174 82 202 67Q230 52 280 52Q329 52 357 67Q385 82 399 108.5Q413 135 416.5 171.5Q420 208 420 250ZM490 250Q490 193 481.5 145Q473 97 449.5 62.5Q426 28 385 9Q344 -10 280 -10Q216 -10 175 9Q134 28 111 62.5Q88 97 79 145Q70 193 70 250Q70 307 79 355Q88 403 111 437.5Q134 472 175 491Q216 510 280 510Q344 510 385 491Q426 472 449.5 437.5Q473 403 481.5 355Q490 307 490 250Z" glyph-name="odieresis" horiz-adv-x="560" unicode="&#246;" /><glyph d="M460 685Q460 662 444 646Q428 630 405 630Q382 630 366 646Q350 662 350 685Q350 708 366 724Q382 740 405 740Q428 740 444 724Q460 708 460 685ZM205 630Q182 630 166 646Q150 662 150 685Q150 708 166 724Q182 740 205 740Q228 740 244 724Q260 708 260 685Q260 662 244 646Q228 630 205 630ZM468 250Q468 292 461 329Q454 366 436 393Q418 420 386.5 435.5Q355 451 305 451Q254 451 222.5 435.5Q191 420 173 393Q155 366 148.5 329Q142 292 142 250Q142 208 148.5 171Q155 134 173 107Q191 80 222.5 64.5Q254 49 305 49Q355 49 386.5 64.5Q418 80 436 107Q454 134 461 171Q468 208 468 250ZM535 250Q535 193 523 145Q511 97 484 62.5Q457 28 413 9Q369 -10 305 -10Q241 -10 197 9Q153 28 126 62.5Q99 97 87 145Q75 193 75 250Q75 307 87 355Q99 403 126 437.5Q153 472 197 491Q241 510 305 510Q369 510 413 491Q457 472 484 437.5Q511 403 523 355Q535 307 535 250Z" glyph-name="odieresis.smcp" horiz-adv-x="610" /><glyph d="M630 448Q586 448 559.5 433.5Q533 419 518 395Q503 371 497 340Q491 309 490 275H750Q750 308 747.5 339.5Q745 371 733 395Q721 419 697 433.5Q673 448 630 448ZM420 250Q420 292 416.5 328.5Q413 365 399 391.5Q385 418 357 433Q329 448 280 448Q230 448 202 433Q174 418 160.5 391.5Q147 365 143.5 328.5Q140 292 140 250Q140 208 143.5 171.5Q147 135 160.5 108.5Q174 82 202 67Q230 52 280 52Q329 52 357 67Q385 82 399 108.5Q413 135 416.5 171.5Q420 208 420 250ZM280 510Q350 510 391.5 488Q433 466 456 426Q479 465 520.5 487.5Q562 510 630 510Q694 510 731.5 489.5Q769 469 788.5 434Q808 399 814 351.5Q820 304 820 250V218H490Q491 185 497.5 155Q504 125 519 102Q534 79 561 65.5Q588 52 630 52Q684 52 721 58Q758 64 795 80V20Q753 1 710 -4.5Q667 -10 630 -10Q562 -10 520.5 12.5Q479 35 456 74Q433 34 391.5 12Q350 -10 280 -10Q216 -10 175 9Q134 28 111 62.5Q88 97 79 145Q70 193 70 250Q70 307 79 355Q88 403 111 437.5Q134 472 175 491Q216 510 280 510Z" glyph-name="oe" horiz-adv-x="890" unicode="&#339;" /><glyph d="M375 61V439H305Q255 439 222 425.5Q189 412 169 387Q149 362 140.5 327Q132 292 132 250Q132 208 140.5 173Q149 138 169 113Q189 88 222 74.5Q255 61 305 61ZM675 226H441V61H710V0H307Q242 0 196.5 17.5Q151 35 121.5 67.5Q92 100 78.5 146.5Q65 193 65 250Q65 307 78.5 353.5Q92 400 121.5 432.5Q151 465 196.5 482.5Q242 500 307 500H710V439H441V287H675Z" glyph-name="oe.smcp" horiz-adv-x="775" /><glyph d="M445 0Q396 -20 367.5 -51.5Q339 -83 339 -122Q339 -145 351.5 -162Q364 -179 393 -179Q410 -179 424.5 -176.5Q439 -174 450 -171V-219Q437 -224 419 -227Q401 -230 379 -230Q334 -230 306 -205Q278 -180 278 -135Q278 -47 367 1Z" glyph-name="ogonek" horiz-adv-x="602" unicode="&#731;" /><glyph d="M265 575 120 750H215L295 575ZM420 250Q420 292 416.5 328.5Q413 365 399 391.5Q385 418 357 433Q329 448 280 448Q230 448 202 433Q174 418 160.5 391.5Q147 365 143.5 328.5Q140 292 140 250Q140 208 143.5 171.5Q147 135 160.5 108.5Q174 82 202 67Q230 52 280 52Q329 52 357 67Q385 82 399 108.5Q413 135 416.5 171.5Q420 208 420 250ZM490 250Q490 193 481.5 145Q473 97 449.5 62.5Q426 28 385 9Q344 -10 280 -10Q216 -10 175 9Q134 28 111 62.5Q88 97 79 145Q70 193 70 250Q70 307 79 355Q88 403 111 437.5Q134 472 175 491Q216 510 280 510Q344 510 385 491Q426 472 449.5 437.5Q473 403 481.5 355Q490 307 490 250Z" glyph-name="ograve" horiz-adv-x="560" unicode="&#242;" /><glyph d="M290 575 145 750H240L320 575ZM468 250Q468 292 461 329Q454 366 436 393Q418 420 386.5 435.5Q355 451 305 451Q254 451 222.5 435.5Q191 420 173 393Q155 366 148.5 329Q142 292 142 250Q142 208 148.5 171Q155 134 173 107Q191 80 222.5 64.5Q254 49 305 49Q355 49 386.5 64.5Q418 80 436 107Q454 134 461 171Q468 208 468 250ZM535 250Q535 193 523 145Q511 97 484 62.5Q457 28 413 9Q369 -10 305 -10Q241 -10 197 9Q153 28 126 62.5Q99 97 87 145Q75 193 75 250Q75 307 87 355Q99 403 126 437.5Q153 472 197 491Q241 510 305 510Q369 510 413 491Q457 472 484 437.5Q511 403 523 355Q535 307 535 250Z" glyph-name="ograve.smcp" horiz-adv-x="610" /><glyph d="M190 575 270 750H365L220 575ZM340 575 420 750H518L370 575ZM420 250Q420 292 416.5 328.5Q413 365 399 391.5Q385 418 357 433Q329 448 280 448Q230 448 202 433Q174 418 160.5 391.5Q147 365 143.5 328.5Q140 292 140 250Q140 208 143.5 171.5Q147 135 160.5 108.5Q174 82 202 67Q230 52 280 52Q329 52 357 67Q385 82 399 108.5Q413 135 416.5 171.5Q420 208 420 250ZM490 250Q490 193 481.5 145Q473 97 449.5 62.5Q426 28 385 9Q344 -10 280 -10Q216 -10 175 9Q134 28 111 62.5Q88 97 79 145Q70 193 70 250Q70 307 79 355Q88 403 111 437.5Q134 472 175 491Q216 510 280 510Q344 510 385 491Q426 472 449.5 437.5Q473 403 481.5 355Q490 307 490 250Z" glyph-name="ohungarumlaut" horiz-adv-x="560" unicode="&#337;" /><glyph d="M198 575 278 750H373L248 575ZM348 575 428 750H523L398 575ZM468 250Q468 292 461 329Q454 366 436 393Q418 420 386.5 435.5Q355 451 305 451Q254 451 222.5 435.5Q191 420 173 393Q155 366 148.5 329Q142 292 142 250Q142 208 148.5 171Q155 134 173 107Q191 80 222.5 64.5Q254 49 305 49Q355 49 386.5 64.5Q418 80 436 107Q454 134 461 171Q468 208 468 250ZM535 250Q535 193 523 145Q511 97 484 62.5Q457 28 413 9Q369 -10 305 -10Q241 -10 197 9Q153 28 126 62.5Q99 97 87 145Q75 193 75 250Q75 307 87 355Q99 403 126 437.5Q153 472 197 491Q241 510 305 510Q369 510 413 491Q457 472 484 437.5Q511 403 523 355Q535 307 535 250Z" glyph-name="ohungarumlaut.smcp" horiz-adv-x="610" /><glyph d="M143 680V745H417V680ZM420 250Q420 292 416.5 328.5Q413 365 399 391.5Q385 418 357 433Q329 448 280 448Q230 448 202 433Q174 418 160.5 391.5Q147 365 143.5 328.5Q140 292 140 250Q140 208 143.5 171.5Q147 135 160.5 108.5Q174 82 202 67Q230 52 280 52Q329 52 357 67Q385 82 399 108.5Q413 135 416.5 171.5Q420 208 420 250ZM490 250Q490 193 481.5 145Q473 97 449.5 62.5Q426 28 385 9Q344 -10 280 -10Q216 -10 175 9Q134 28 111 62.5Q88 97 79 145Q70 193 70 250Q70 307 79 355Q88 403 111 437.5Q134 472 175 491Q216 510 280 510Q344 510 385 491Q426 472 449.5 437.5Q473 403 481.5 355Q490 307 490 250Z" glyph-name="omacron" horiz-adv-x="560" unicode="&#333;" /><glyph d="M168 640H442V575H168ZM468 250Q468 292 461 329Q454 366 436 393Q418 420 386.5 435.5Q355 451 305 451Q254 451 222.5 435.5Q191 420 173 393Q155 366 148.5 329Q142 292 142 250Q142 208 148.5 171Q155 134 173 107Q191 80 222.5 64.5Q254 49 305 49Q355 49 386.5 64.5Q418 80 436 107Q454 134 461 171Q468 208 468 250ZM535 250Q535 193 523 145Q511 97 484 62.5Q457 28 413 9Q369 -10 305 -10Q241 -10 197 9Q153 28 126 62.5Q99 97 87 145Q75 193 75 250Q75 307 87 355Q99 403 126 437.5Q153 472 197 491Q241 510 305 510Q369 510 413 491Q457 472 484 437.5Q511 403 523 355Q535 307 535 250Z" glyph-name="omacron.smcp" horiz-adv-x="610" /><glyph d="M125 55H260V688L90 673V700L300 760H335V55H470V0H125Z" glyph-name="one" horiz-adv-x="600" unicode="1" /><glyph d="M235 760V0H160V688L25 683V710L200 760Z" glyph-name="one.LP" horiz-adv-x="360" /><glyph d="M235 510V0H160V438L25 433V460L200 510Z" glyph-name="one.OP" horiz-adv-x="360" /><glyph d="M273 308H60V374H273Z" glyph-name="onethirdemdash" horiz-adv-x="333" /><glyph d="M168 556Q133 553 114 535.5Q95 518 95 489Q95 476 98.5 464Q102 452 110.5 442.5Q119 433 133.5 427Q148 421 169 421Q192 421 216.5 428.5Q241 436 261 447V564ZM261 634Q261 669 244 686.5Q227 704 182 704Q150 704 121 698Q92 692 66 683V738Q94 749 125.5 754.5Q157 760 182 760Q225 760 253 751Q281 742 297 725Q313 708 319 684.5Q325 661 325 632V375H283L276 399Q217 365 167 365Q92 365 61 397.5Q30 430 30 489Q30 541 63.5 572.5Q97 604 169 608L261 613Z" glyph-name="ordfeminine" horiz-adv-x="370" unicode="&#170;" /><glyph d="M132 533H238L185 677ZM298 378 258 481H112L72 378H-1L160 760H210L371 378Z" glyph-name="ordfeminine.smcp" horiz-adv-x="370" /><glyph d="M97 563Q97 488 123 455.5Q149 423 206 423Q265 423 294 456.5Q323 490 323 563Q323 636 294 669Q265 702 206 702Q149 702 123 670Q97 638 97 563ZM35 563Q35 660 75 710Q115 760 206 760Q297 760 340.5 710Q384 660 384 563Q384 466 340.5 415.5Q297 365 206 365Q115 365 75 415.5Q35 466 35 563Z" glyph-name="ordmasculine" horiz-adv-x="419" unicode="&#186;" /><glyph d="M109 565Q109 491 134 460.5Q159 430 216 430Q275 430 303 461Q331 492 331 565Q331 638 303 669Q275 700 216 700Q159 700 134 669.5Q109 639 109 565ZM45 565Q45 662 85 711Q125 760 216 760Q307 760 350.5 711Q394 662 394 565Q394 468 350.5 419Q307 370 216 370Q125 370 85 419Q45 468 45 565Z" glyph-name="ordmasculine.smcp" horiz-adv-x="439" /><glyph d="M420 250Q420 290 417 324.5Q414 359 402 385L191 73Q222 52 280 52Q329 52 357 67Q385 82 399 108.5Q413 135 416.5 171.5Q420 208 420 250ZM140 250Q140 209 142.5 174.5Q145 140 157 114L368 426Q352 437 330.5 442.5Q309 448 280 448Q230 448 202 433Q174 418 160.5 391.5Q147 365 143.5 328.5Q140 292 140 250ZM117 54Q90 89 80 138.5Q70 188 70 250Q70 307 79 355Q88 403 111 437.5Q134 472 175 491Q216 510 280 510Q321 510 351.5 502Q382 494 405 480L418 500H480L443 445Q470 410 480 360.5Q490 311 490 250Q490 193 481.5 145Q473 97 449.5 62.5Q426 28 385 9Q344 -10 280 -10Q201 -10 155 19L142 0H80Z" glyph-name="oslash" horiz-adv-x="560" unicode="&#248;" /><glyph d="M468 250Q468 291 462 326.5Q456 362 439 388L220 65Q255 49 305 49Q355 49 386.5 64.5Q418 80 436 107Q454 134 461 171Q468 208 468 250ZM142 250Q142 208 147.5 173Q153 138 170 111L389 434Q355 451 305 451Q254 451 222.5 435.5Q191 420 173 393Q155 366 148.5 329Q142 292 142 250ZM478 445Q509 410 522 360.5Q535 311 535 250Q535 193 523 145Q511 97 484 62.5Q457 28 413 9Q369 -10 305 -10Q268 -10 238.5 -3.5Q209 3 185 14L176 0H95L132 55Q101 90 88 139.5Q75 189 75 250Q75 307 87 355Q99 403 126 437.5Q153 472 197 491Q241 510 305 510Q341 510 371 503.5Q401 497 424 486L434 500H515Z" glyph-name="oslash.smcp" horiz-adv-x="610" /><glyph d="M355 659Q374 659 384 664.5Q394 670 398.5 677.5Q403 685 403.5 694Q404 703 404 711L461 710Q465 657 435 628.5Q405 600 351 600Q320 600 301 610.5Q282 621 267.5 633Q253 645 239 655.5Q225 666 204 666Q185 666 175.5 660.5Q166 655 161.5 647.5Q157 640 156.5 630.5Q156 621 156 614L99 615Q95 668 124.5 696.5Q154 725 208 725Q239 725 258 714.5Q277 704 291.5 692Q306 680 320 669.5Q334 659 355 659ZM420 250Q420 292 416.5 328.5Q413 365 399 391.5Q385 418 357 433Q329 448 280 448Q230 448 202 433Q174 418 160.5 391.5Q147 365 143.5 328.5Q140 292 140 250Q140 208 143.5 171.5Q147 135 160.5 108.5Q174 82 202 67Q230 52 280 52Q329 52 357 67Q385 82 399 108.5Q413 135 416.5 171.5Q420 208 420 250ZM490 250Q490 193 481.5 145Q473 97 449.5 62.5Q426 28 385 9Q344 -10 280 -10Q216 -10 175 9Q134 28 111 62.5Q88 97 79 145Q70 193 70 250Q70 307 79 355Q88 403 111 437.5Q134 472 175 491Q216 510 280 510Q344 510 385 491Q426 472 449.5 437.5Q473 403 481.5 355Q490 307 490 250Z" glyph-name="otilde" horiz-adv-x="560" unicode="&#245;" /><glyph d="M380 659Q399 659 409 664.5Q419 670 423.5 677.5Q428 685 428.5 694Q429 703 429 711L486 710Q490 657 460 628.5Q430 600 376 600Q345 600 326 610.5Q307 621 292.5 633Q278 645 264 655.5Q250 666 229 666Q210 666 200.5 660.5Q191 655 186.5 647.5Q182 640 181.5 630.5Q181 621 181 614L124 615Q120 668 149.5 696.5Q179 725 233 725Q264 725 283 714.5Q302 704 316.5 692Q331 680 345 669.5Q359 659 380 659ZM468 250Q468 292 461 329Q454 366 436 393Q418 420 386.5 435.5Q355 451 305 451Q254 451 222.5 435.5Q191 420 173 393Q155 366 148.5 329Q142 292 142 250Q142 208 148.5 171Q155 134 173 107Q191 80 222.5 64.5Q254 49 305 49Q355 49 386.5 64.5Q418 80 436 107Q454 134 461 171Q468 208 468 250ZM535 250Q535 193 523 145Q511 97 484 62.5Q457 28 413 9Q369 -10 305 -10Q241 -10 197 9Q153 28 126 62.5Q99 97 87 145Q75 193 75 250Q75 307 87 355Q99 403 126 437.5Q153 472 197 491Q241 510 305 510Q369 510 413 491Q457 472 484 437.5Q511 403 523 355Q535 307 535 250Z" glyph-name="otilde.smcp" horiz-adv-x="610" /><glyph d="M204 62Q237 52 290 52Q335 52 361.5 69Q388 86 402.5 114Q417 142 421 177.5Q425 213 425 250Q425 287 421 322.5Q417 358 402.5 386Q388 414 361.5 431Q335 448 290 448Q241 448 210 440Q179 432 150 416V84Q170 73 204 62ZM290 -10Q255 -10 218.5 0Q182 10 150 31V-250H80V500H119L134 459Q173 484 211 497Q249 510 290 510Q350 510 390 489.5Q430 469 453 434Q476 399 485.5 351.5Q495 304 495 250Q495 196 485.5 148.5Q476 101 453 66Q430 31 390 10.5Q350 -10 290 -10Z" glyph-name="p" horiz-adv-x="565" unicode="p" /><glyph d="M388 339Q388 357 384.5 375Q381 393 370.5 407Q360 421 340.5 430Q321 439 290 439H156V239H290Q321 239 340.5 248Q360 257 370.5 271Q381 285 384.5 303Q388 321 388 339ZM156 178V0H90V500H292Q338 500 370 487Q402 474 422 452Q442 430 450.5 400.5Q459 371 459 339Q459 307 450 277.5Q441 248 421.5 226Q402 204 370 191Q338 178 292 178Z" glyph-name="p.smcp" horiz-adv-x="520" /><glyph d="M459 684H388V366H459ZM129 525Q129 498 135.5 470Q142 442 160 418.5Q178 395 211 380.5Q244 366 297 366H317V684H297Q244 684 211 669.5Q178 655 160 631.5Q142 608 135.5 580Q129 552 129 525ZM317 0V300H301Q231 300 183 318.5Q135 337 105.5 368.5Q76 400 63 440.5Q50 481 50 525Q50 569 63 609.5Q76 650 105.5 681.5Q135 713 183 731.5Q231 750 301 750H530V0H459V300H388V0Z" glyph-name="paragraph" horiz-adv-x="620" unicode="&#182;" /><glyph d="M190 -206Q171 -178 149 -130Q127 -82 108.5 -17Q90 48 77.5 129Q65 210 65 305Q65 400 77.5 481Q90 562 108.5 627Q127 692 149 740Q171 788 190 816H265Q246 788 224 740Q202 692 183 627Q164 562 151.5 481Q139 400 139 305Q139 210 151.5 129Q164 48 183 -17Q202 -82 224 -130Q246 -178 265 -206Z" glyph-name="parenleft" horiz-adv-x="310" unicode="(" /><glyph d="M45 -206Q64 -178 86 -130Q108 -82 127 -17Q146 48 158.5 129Q171 210 171 305Q171 400 158.5 481Q146 562 127 627Q108 692 86 740Q64 788 45 816H120Q139 788 161 740Q183 692 201.5 627Q220 562 232.5 481Q245 400 245 305Q245 210 232.5 129Q220 48 201.5 -17Q183 -82 161 -130Q139 -178 120 -206Z" glyph-name="parenright" horiz-adv-x="310" unicode=")" /><glyph d="M420 250Q420 292 416.5 328.5Q413 365 399 391.5Q385 418 357 433Q329 448 280 448Q230 448 202 433Q174 418 160.5 391.5Q147 365 143.5 328.5Q140 292 140 250Q140 208 143.5 171.5Q147 135 160.5 108.5Q174 82 202 67Q230 52 280 52Q329 52 357 67Q385 82 399 108.5Q413 135 416.5 171.5Q420 208 420 250ZM490 250Q490 193 481.5 145Q473 97 449.5 62.5Q426 28 385 9Q344 -10 280 -10Q216 -10 175 9Q134 28 111 62.5Q88 97 79 145Q70 193 70 250Q70 307 79 355Q88 403 111 437.5Q134 472 175 491Q216 510 280 510Q325 510 357.5 497.5Q390 485 413 463Q401 578 362.5 638Q324 698 240 698Q184 698 144.5 689.5Q105 681 85 671V731Q102 740 138.5 750Q175 760 240 760Q316 760 364.5 727.5Q413 695 441 631Q469 567 479.5 471.5Q490 376 490 250Z" glyph-name="partialdiff" horiz-adv-x="560" unicode="&#8706;" /><glyph d="M236 430Q293 430 318 460.5Q343 491 343 565Q343 639 318 669.5Q293 700 236 700Q179 700 154 669.5Q129 639 129 565Q129 491 154 460.5Q179 430 236 430ZM689 320Q632 320 607 289.5Q582 259 582 185Q582 111 607 80.5Q632 50 689 50Q746 50 771 80.5Q796 111 796 185Q796 259 771 289.5Q746 320 689 320ZM159 0 689 750H766L236 0ZM689 380Q780 380 820 331Q860 282 860 185Q860 88 820 39Q780 -10 689 -10Q598 -10 558 39Q518 88 518 185Q518 282 558 331Q598 380 689 380ZM236 370Q145 370 105 419Q65 468 65 565Q65 662 105 711Q145 760 236 760Q327 760 367 711Q407 662 407 565Q407 468 367 419Q327 370 236 370Z" glyph-name="percent" horiz-adv-x="925" unicode="%" /><glyph d="M55 45Q55 68 71 84Q87 100 110 100Q133 100 149 84Q165 68 165 45Q165 22 149 6Q133 -10 110 -10Q87 -10 71 6Q55 22 55 45Z" glyph-name="period" horiz-adv-x="220" unicode="." /><glyph d="M55 375Q55 398 71 414Q87 430 110 430Q133 430 149 414Q165 398 165 375Q165 352 149 336Q133 320 110 320Q87 320 71 336Q55 352 55 375Z" glyph-name="periodcentered" horiz-adv-x="220" unicode="&#183;" /><glyph d="M689 320Q632 320 607 289.5Q582 259 582 185Q582 111 607 80.5Q632 50 689 50Q746 50 771 80.5Q796 111 796 185Q796 259 771 289.5Q746 320 689 320ZM1109 320Q1052 320 1027 289.5Q1002 259 1002 185Q1002 111 1027 80.5Q1052 50 1109 50Q1166 50 1191 80.5Q1216 111 1216 185Q1216 259 1191 289.5Q1166 320 1109 320ZM236 430Q293 430 318 460.5Q343 491 343 565Q343 639 318 669.5Q293 700 236 700Q179 700 154 669.5Q129 639 129 565Q129 491 154 460.5Q179 430 236 430ZM159 0 689 750H766L236 0ZM1109 380Q1200 380 1240 331Q1280 282 1280 185Q1280 88 1240 39Q1200 -10 1109 -10Q1018 -10 978 39Q938 88 938 185Q938 282 978 331Q1018 380 1109 380ZM689 380Q780 380 820 331Q860 282 860 185Q860 88 820 39Q780 -10 689 -10Q598 -10 558 39Q518 88 518 185Q518 282 558 331Q598 380 689 380ZM236 370Q145 370 105 419Q65 468 65 565Q65 662 105 711Q145 760 236 760Q327 760 367 711Q407 662 407 565Q407 468 367 419Q327 370 236 370Z" glyph-name="perthousand" horiz-adv-x="1345" unicode="&#8240;" /><glyph d="M400 295Q400 309 394.5 320Q389 331 367 331H297V258H367Q389 258 394.5 269.5Q400 281 400 295ZM297 200V111H236V389H366Q393 389 411.5 381.5Q430 374 441.5 361Q453 348 458 331Q463 314 463 295Q463 276 458 259Q453 242 441.5 229Q430 216 411.5 208Q393 200 366 200ZM335 52Q378 52 414.5 59Q451 66 477 87Q503 108 518 147Q533 186 533 250Q533 314 518 353Q503 392 477 413Q451 434 414.5 441Q378 448 335 448Q292 448 255.5 441Q219 434 193 413Q167 392 152 353Q137 314 137 250Q137 186 152 147Q167 108 193 87Q219 66 255.5 59Q292 52 335 52ZM335 -10Q282 -10 234 0.5Q186 11 149.5 39.5Q113 68 91.5 119Q70 170 70 250Q70 331 91.5 381.5Q113 432 149.5 460.5Q186 489 234 499.5Q282 510 335 510Q388 510 436 499.5Q484 489 520.5 460.5Q557 432 578.5 381.5Q600 331 600 250Q600 170 578.5 119Q557 68 520.5 39.5Q484 11 436 0.5Q388 -10 335 -10Z" glyph-name="pi" horiz-adv-x="680" unicode="&#960;" /><glyph d="M227 141V308H60V374H227V541H293V374H460V308H293V141Z" glyph-name="plus" horiz-adv-x="520" unicode="+" /><glyph d="M60 42V108H460V42ZM227 174V341H60V407H227V574H293V407H460V341H293V174Z" glyph-name="plusminus" horiz-adv-x="520" unicode="&#177;" /><glyph d="M381 300Q381 313 375 322Q369 331 346 331H288V269H346Q369 269 375 278Q381 287 381 300ZM288 210V111H227V389H348Q402 389 423.5 363.5Q445 338 445 300Q445 273 436 252Q427 231 404 220L467 111H397L341 210ZM335 52Q378 52 414.5 59Q451 66 477 87Q503 108 518 147Q533 186 533 250Q533 314 518 353Q503 392 477 413Q451 434 414.5 441Q378 448 335 448Q292 448 255.5 441Q219 434 193 413Q167 392 152 353Q137 314 137 250Q137 186 152 147Q167 108 193 87Q219 66 255.5 59Q292 52 335 52ZM335 -10Q282 -10 234 0.5Q186 11 149.5 39.5Q113 68 91.5 119Q70 170 70 250Q70 331 91.5 381.5Q113 432 149.5 460.5Q186 489 234 499.5Q282 510 335 510Q388 510 436 499.5Q484 489 520.5 460.5Q557 432 578.5 381.5Q600 331 600 250Q600 170 578.5 119Q557 68 520.5 39.5Q484 11 436 0.5Q388 -10 335 -10Z" glyph-name="product" horiz-adv-x="680" unicode="&#8719;" /><glyph glyph-name="punctuationspace" horiz-adv-x="220" unicode="&#8200;" /><glyph d="M361 62Q375 66 388.5 71.5Q402 77 415 84V416Q384 433 353.5 440.5Q323 448 275 448Q230 448 203.5 431Q177 414 162.5 386Q148 358 144 322.5Q140 287 140 250Q140 213 144 177.5Q148 142 162.5 114Q177 86 203.5 69Q230 52 275 52Q328 52 361 62ZM275 -10Q215 -10 175 10.5Q135 31 112 66Q89 101 79.5 148.5Q70 196 70 250Q70 304 79.5 351.5Q89 399 112 434Q135 469 175 489.5Q215 510 275 510Q315 510 355.5 497Q396 484 431 458L446 500H485V-250H415V31Q344 -10 275 -10Z" glyph-name="q" horiz-adv-x="565" unicode="q" /><glyph d="M468 250Q468 292 461 329Q454 366 436 393Q418 420 386.5 435.5Q355 451 305 451Q254 451 222.5 435.5Q191 420 173 393Q155 366 148.5 329Q142 292 142 250Q142 208 148.5 171Q155 134 173 107Q191 80 222.5 64.5Q254 49 305 49Q355 49 386.5 64.5Q418 80 436 107Q454 134 461 171Q468 208 468 250ZM535 250Q535 160 505.5 95.5Q476 31 403 5V4L686 -52V-124L232 -2Q188 10 158 32.5Q128 55 109.5 87.5Q91 120 83 161Q75 202 75 250Q75 307 87 355Q99 403 126 437.5Q153 472 197 491Q241 510 305 510Q369 510 413 491Q457 472 484 437.5Q511 403 523 355Q535 307 535 250Z" glyph-name="q.smcp" horiz-adv-x="610" /><glyph d="M128 45Q128 68 144 84Q160 100 183 100Q206 100 222 84Q238 68 238 45Q238 22 222 6Q206 -10 183 -10Q160 -10 144 6Q128 22 128 45ZM195 696Q141 696 102 688.5Q63 681 40 673V735Q52 740 71 744.5Q90 749 111 752.5Q132 756 154 758Q176 760 194 760Q273 760 321 743.5Q369 727 395.5 699.5Q422 672 431 636Q440 600 440 562Q440 515 427 482.5Q414 450 390 426.5Q366 403 332.5 385.5Q299 368 257 351Q230 340 214.5 327Q199 314 192 297Q185 280 183.5 259Q182 238 182 210H141Q135 240 133.5 268.5Q132 297 141 323Q150 349 173.5 371Q197 393 242 410Q267 419 290 429.5Q313 440 331 456Q349 472 359.5 497Q370 522 370 561Q370 592 363.5 617Q357 642 338 659.5Q319 677 284.5 686.5Q250 696 195 696Z" glyph-name="question" horiz-adv-x="500" unicode="?" /><glyph d="M352 455Q352 432 336 416Q320 400 297 400Q274 400 258 416Q242 432 242 455Q242 478 258 494Q274 510 297 510Q320 510 336 494Q352 478 352 455ZM285 -196Q339 -196 378 -188.5Q417 -181 440 -173V-235Q428 -240 409 -244.5Q390 -249 369 -252.5Q348 -256 326 -258Q304 -260 286 -260Q207 -260 159 -243.5Q111 -227 84.5 -199.5Q58 -172 49 -136Q40 -100 40 -62Q40 -15 53 17.5Q66 50 90 73.5Q114 97 147.5 114.5Q181 132 223 149Q250 160 265.5 173Q281 186 288 203Q295 220 296.5 241Q298 262 298 290H339Q345 260 346.5 231.5Q348 203 339 177Q330 151 306.5 129Q283 107 238 90Q213 81 190 70.5Q167 60 149 44Q131 28 120.5 3Q110 -22 110 -61Q110 -92 116.5 -117Q123 -142 142 -159.5Q161 -177 195 -186.5Q229 -196 285 -196Z" glyph-name="questiondown" horiz-adv-x="500" unicode="&#191;" /><glyph d="M231 500 200 750H300L269 500ZM91 500 60 750H160L129 500Z" glyph-name="quotedbl" horiz-adv-x="360" unicode="&quot;" /><glyph d="M183 -160Q196 -130 205 -91Q213 -58 216.5 -12.5Q220 33 212 90H302Q300 31 285 -15Q270 -61 253 -93Q233 -131 207 -160ZM33 -160Q46 -130 55 -91Q63 -58 66.5 -12.5Q70 33 62 90H152Q150 31 135 -15Q120 -61 103 -93Q83 -131 57 -160Z" glyph-name="quotedblbase" horiz-adv-x="310" unicode="&#8222;" /><glyph d="M277 750Q264 720 255 681Q247 648 243.5 602.5Q240 557 248 500H158Q160 558 175 604.5Q190 651 207 683Q227 721 253 750ZM127 750Q114 720 105 681Q97 648 93.5 602.5Q90 557 98 500H8Q10 558 25 604.5Q40 651 57 683Q77 721 103 750Z" glyph-name="quotedblleft" horiz-adv-x="310" unicode="&#8220;" /><glyph d="M183 500Q196 530 205 569Q213 602 216.5 647.5Q220 693 212 750H302Q300 691 285 645Q270 599 253 567Q233 529 207 500ZM33 500Q46 530 55 569Q63 602 66.5 647.5Q70 693 62 750H152Q150 691 135 645Q120 599 103 567Q83 529 57 500Z" glyph-name="quotedblright" horiz-adv-x="310" unicode="&#8221;" /><glyph d="M127 750Q114 720 105 681Q97 648 93.5 602.5Q90 557 98 500H8Q10 558 25 604.5Q40 651 57 683Q77 721 103 750Z" glyph-name="quoteleft" horiz-adv-x="160" unicode="&#8216;" /><glyph d="M33 500Q46 530 55 569Q63 602 66.5 647.5Q70 693 62 750H152Q150 691 135 645Q120 599 103 567Q83 529 57 500Z" glyph-name="quoteright" horiz-adv-x="160" unicode="&#8217;" /><glyph d="M33 -160Q46 -130 55 -91Q63 -58 66.5 -12.5Q70 33 62 90H152Q150 31 135 -15Q120 -61 103 -93Q83 -131 57 -160Z" glyph-name="quotesinglbase" horiz-adv-x="160" unicode="&#8218;" /><glyph d="M91 500 60 750H160L129 500Z" glyph-name="quotesingle" horiz-adv-x="220" unicode="&apos;" /><glyph d="M355 440Q331 448 295 448Q244 448 211 440Q178 432 150 416V0H80V500H119L134 458Q169 484 211 497Q253 510 295 510Q312 510 326.5 508.5Q341 507 355 505Z" glyph-name="r" horiz-adv-x="393" unicode="r" /><glyph d="M398 349Q398 367 394 383.5Q390 400 378.5 412Q367 424 347.5 431.5Q328 439 297 439H156V259H297Q328 259 347.5 266.5Q367 274 378.5 286Q390 298 394 314.5Q398 331 398 349ZM156 198V0H90V500H304Q350 500 382 488.5Q414 477 433 456.5Q452 436 460.5 408.5Q469 381 469 349Q469 298 448 260.5Q427 223 375 207L494 0H416L309 198Z" glyph-name="r.smcp" horiz-adv-x="550" /><glyph d="M203 575 283 750H378L233 575ZM355 440Q331 448 295 448Q244 448 211 440Q178 432 150 416V0H80V500H119L134 458Q169 484 211 497Q253 510 295 510Q312 510 326.5 508.5Q341 507 355 505Z" glyph-name="racute" horiz-adv-x="393" unicode="&#341;" /><glyph d="M235 575 315 750H410L265 575ZM398 349Q398 367 394 383.5Q390 400 378.5 412Q367 424 347.5 431.5Q328 439 297 439H156V259H297Q328 259 347.5 266.5Q367 274 378.5 286Q390 298 394 314.5Q398 331 398 349ZM156 198V0H90V500H304Q350 500 382 488.5Q414 477 433 456.5Q452 436 460.5 408.5Q469 381 469 349Q469 298 448 260.5Q427 223 375 207L494 0H416L309 198Z" glyph-name="racute.smcp" horiz-adv-x="550" /><glyph d="M146 61H514V439H146ZM80 500H580V0H80Z" glyph-name="radical" horiz-adv-x="660" unicode="&#8730;" /><glyph d="M383 750 258 575H178L53 750H83L218 634L353 750ZM355 440Q331 448 295 448Q244 448 211 440Q178 432 150 416V0H80V500H119L134 458Q169 484 211 497Q253 510 295 510Q312 510 326.5 508.5Q341 507 355 505Z" glyph-name="rcaron" horiz-adv-x="393" unicode="&#345;" /><glyph d="M130 750 265 634 400 750H430L305 575H225L100 750ZM398 349Q398 367 394 383.5Q390 400 378.5 412Q367 424 347.5 431.5Q328 439 297 439H156V259H297Q328 259 347.5 266.5Q367 274 378.5 286Q390 298 394 314.5Q398 331 398 349ZM156 198V0H90V500H304Q350 500 382 488.5Q414 477 433 456.5Q452 436 460.5 408.5Q469 381 469 349Q469 298 448 260.5Q427 223 375 207L494 0H416L309 198Z" glyph-name="rcaron.smcp" horiz-adv-x="550" /><glyph d="M75 -251 93 -171Q77 -165 68.5 -151.5Q60 -138 60 -121Q60 -98 76 -82Q92 -66 115 -66Q138 -66 154 -82Q170 -98 170 -121Q170 -136 164 -148L117 -251ZM355 440Q331 448 295 448Q244 448 211 440Q178 432 150 416V0H80V500H119L134 458Q169 484 211 497Q253 510 295 510Q312 510 326.5 508.5Q341 507 355 505Z" glyph-name="rcommaaccent" horiz-adv-x="393" unicode="&#343;" /><glyph d="M238 -250 256 -170Q240 -164 231.5 -150.5Q223 -137 223 -120Q223 -97 239 -81Q255 -65 278 -65Q301 -65 317 -81Q333 -97 333 -120Q333 -135 327 -147L280 -250ZM398 349Q398 367 394 383.5Q390 400 378.5 412Q367 424 347.5 431.5Q328 439 297 439H156V259H297Q328 259 347.5 266.5Q367 274 378.5 286Q390 298 394 314.5Q398 331 398 349ZM156 198V0H90V500H304Q350 500 382 488.5Q414 477 433 456.5Q452 436 460.5 408.5Q469 381 469 349Q469 298 448 260.5Q427 223 375 207L494 0H416L309 198Z" glyph-name="rcommaaccent.smcp" horiz-adv-x="550" /><glyph d="M195 651Q195 658 192 662.5Q189 667 177 667H147V635H177Q189 635 192 639.5Q195 644 195 651ZM147 604V553H115V697H179Q207 697 218 684Q229 671 229 651Q229 620 208 610L240 553H204L175 604ZM172 728Q150 728 131 724.5Q112 721 98.5 709.5Q85 698 77.5 678Q70 658 70 625Q70 592 77.5 572Q85 552 98.5 540.5Q112 529 131 525.5Q150 522 172 522Q194 522 213 525.5Q232 529 245.5 540.5Q259 552 266.5 572Q274 592 274 625Q274 658 266.5 678Q259 698 245.5 709.5Q232 721 213 724.5Q194 728 172 728ZM172 760Q199 760 224 754.5Q249 749 268 734.5Q287 720 298 693.5Q309 667 309 625Q309 583 298 557Q287 531 268 516Q249 501 224 495.5Q199 490 172 490Q145 490 120 495.5Q95 501 76 516Q57 531 46 557Q35 583 35 625Q35 667 46 693.5Q57 720 76 734.5Q95 749 120 754.5Q145 760 172 760Z" glyph-name="registered" horiz-adv-x="344" unicode="&#174;" /><glyph d="M328 662Q328 690 315.5 700.5Q303 711 280 711Q257 711 244 700.5Q231 690 231 662Q231 635 244 624.5Q257 614 280 614Q303 614 315.5 624.5Q328 635 328 662ZM378 662Q378 611 351.5 588Q325 565 280 565Q235 565 208 588Q181 611 181 662Q181 714 208 737Q235 760 280 760Q325 760 351.5 737Q378 714 378 662Z" glyph-name="ring" horiz-adv-x="602" unicode="&#730;" /><glyph d="M133 362Q133 345 137.5 332.5Q142 320 154 311Q166 302 188.5 296Q211 290 247 287Q300 282 334.5 270.5Q369 259 388.5 241Q408 223 415.5 199Q423 175 423 144Q423 115 413 87.5Q403 60 379.5 38Q356 16 317.5 3Q279 -10 222 -10Q204 -10 183 -8Q162 -6 141.5 -2.5Q121 1 103 5.5Q85 10 73 15V75Q96 67 132.5 59.5Q169 52 223 52Q262 52 287.5 59.5Q313 67 328 80Q343 93 349 109Q355 125 355 143Q355 160 351.5 174.5Q348 189 336 200Q324 211 301.5 218.5Q279 226 242 229Q188 234 153.5 245.5Q119 257 100 274.5Q81 292 74 314Q67 336 67 362Q67 389 76.5 415.5Q86 442 107.5 463Q129 484 165 497Q201 510 254 510Q289 510 327 504.5Q365 499 398 485V425Q369 435 336 441.5Q303 448 253 448Q216 448 192.5 441.5Q169 435 156 423.5Q143 412 138 396Q133 380 133 362Z" glyph-name="s" horiz-adv-x="490" unicode="s" /><glyph d="M139 358Q139 339 146.5 327Q154 315 170.5 307Q187 299 212.5 294.5Q238 290 274 287Q327 282 363.5 272Q400 262 422.5 245.5Q445 229 455 204.5Q465 180 465 146Q465 114 454 85.5Q443 57 417.5 36Q392 15 350.5 2.5Q309 -10 249 -10Q230 -10 206.5 -8Q183 -6 159.5 -2Q136 2 116.5 7Q97 12 85 17V75Q108 66 151 58Q194 50 250 50Q333 50 366 74.5Q399 99 399 145Q399 186 371 204.5Q343 223 269 229Q215 234 177.5 243Q140 252 117.5 267Q95 282 85 304Q75 326 75 358Q75 392 86 420Q97 448 121.5 468Q146 488 185.5 499Q225 510 281 510Q319 510 363 504.5Q407 499 440 485V427Q411 437 372 443.5Q333 450 280 450Q201 450 170 428Q139 406 139 358Z" glyph-name="s.smcp" horiz-adv-x="540" /><glyph d="M230 575 310 750H405L260 575ZM133 362Q133 345 137.5 332.5Q142 320 154 311Q166 302 188.5 296Q211 290 247 287Q300 282 334.5 270.5Q369 259 388.5 241Q408 223 415.5 199Q423 175 423 144Q423 115 413 87.5Q403 60 379.5 38Q356 16 317.5 3Q279 -10 222 -10Q204 -10 183 -8Q162 -6 141.5 -2.5Q121 1 103 5.5Q85 10 73 15V75Q96 67 132.5 59.5Q169 52 223 52Q262 52 287.5 59.5Q313 67 328 80Q343 93 349 109Q355 125 355 143Q355 160 351.5 174.5Q348 189 336 200Q324 211 301.5 218.5Q279 226 242 229Q188 234 153.5 245.5Q119 257 100 274.5Q81 292 74 314Q67 336 67 362Q67 389 76.5 415.5Q86 442 107.5 463Q129 484 165 497Q201 510 254 510Q289 510 327 504.5Q365 499 398 485V425Q369 435 336 441.5Q303 448 253 448Q216 448 192.5 441.5Q169 435 156 423.5Q143 412 138 396Q133 380 133 362Z" glyph-name="sacute" horiz-adv-x="490" unicode="&#347;" /><glyph d="M255 575 335 750H430L285 575ZM139 358Q139 339 146.5 327Q154 315 170.5 307Q187 299 212.5 294.5Q238 290 274 287Q327 282 363.5 272Q400 262 422.5 245.5Q445 229 455 204.5Q465 180 465 146Q465 114 454 85.5Q443 57 417.5 36Q392 15 350.5 2.5Q309 -10 249 -10Q230 -10 206.5 -8Q183 -6 159.5 -2Q136 2 116.5 7Q97 12 85 17V75Q108 66 151 58Q194 50 250 50Q333 50 366 74.5Q399 99 399 145Q399 186 371 204.5Q343 223 269 229Q215 234 177.5 243Q140 252 117.5 267Q95 282 85 304Q75 326 75 358Q75 392 86 420Q97 448 121.5 468Q146 488 185.5 499Q225 510 281 510Q319 510 363 504.5Q407 499 440 485V427Q411 437 372 443.5Q333 450 280 450Q201 450 170 428Q139 406 139 358Z" glyph-name="sacute.smcp" horiz-adv-x="540" /><glyph d="M410 750 285 575H205L80 750H130L245 634L360 750ZM133 362Q133 345 137.5 332.5Q142 320 154 311Q166 302 188.5 296Q211 290 247 287Q300 282 334.5 270.5Q369 259 388.5 241Q408 223 415.5 199Q423 175 423 144Q423 115 413 87.5Q403 60 379.5 38Q356 16 317.5 3Q279 -10 222 -10Q204 -10 183 -8Q162 -6 141.5 -2.5Q121 1 103 5.5Q85 10 73 15V75Q96 67 132.5 59.5Q169 52 223 52Q262 52 287.5 59.5Q313 67 328 80Q343 93 349 109Q355 125 355 143Q355 160 351.5 174.5Q348 189 336 200Q324 211 301.5 218.5Q279 226 242 229Q188 234 153.5 245.5Q119 257 100 274.5Q81 292 74 314Q67 336 67 362Q67 389 76.5 415.5Q86 442 107.5 463Q129 484 165 497Q201 510 254 510Q289 510 327 504.5Q365 499 398 485V425Q369 435 336 441.5Q303 448 253 448Q216 448 192.5 441.5Q169 435 156 423.5Q143 412 138 396Q133 380 133 362Z" glyph-name="scaron" horiz-adv-x="490" unicode="&#353;" /><glyph d="M135 750 270 634 405 750H435L310 575H230L105 750ZM139 358Q139 339 146.5 327Q154 315 170.5 307Q187 299 212.5 294.5Q238 290 274 287Q327 282 363.5 272Q400 262 422.5 245.5Q445 229 455 204.5Q465 180 465 146Q465 114 454 85.5Q443 57 417.5 36Q392 15 350.5 2.5Q309 -10 249 -10Q230 -10 206.5 -8Q183 -6 159.5 -2Q136 2 116.5 7Q97 12 85 17V75Q108 66 151 58Q194 50 250 50Q333 50 366 74.5Q399 99 399 145Q399 186 371 204.5Q343 223 269 229Q215 234 177.5 243Q140 252 117.5 267Q95 282 85 304Q75 326 75 358Q75 392 86 420Q97 448 121.5 468Q146 488 185.5 499Q225 510 281 510Q319 510 363 504.5Q407 499 440 485V427Q411 437 372 443.5Q333 450 280 450Q201 450 170 428Q139 406 139 358Z" glyph-name="scaron.smcp" horiz-adv-x="540" /><glyph d="M192 -185Q202 -176 211 -165Q220 -154 224.5 -142.5Q229 -131 227.5 -121.5Q226 -112 216 -106Q198 -96 192 -83.5Q186 -71 187.5 -58Q189 -45 195.5 -32.5Q202 -20 209 -10Q191 -9 172 -7Q153 -5 134.5 -1.5Q116 2 100 6Q84 10 73 15V75Q96 67 132.5 59.5Q169 52 223 52Q262 52 287.5 59.5Q313 67 328 80Q343 93 349 109Q355 125 355 143Q355 160 351.5 174.5Q348 189 336 200Q324 211 301.5 218.5Q279 226 242 229Q188 234 153.5 245.5Q119 257 100 274.5Q81 292 74 314Q67 336 67 362Q67 389 76.5 415.5Q86 442 107.5 463Q129 484 165 497Q201 510 254 510Q289 510 327 504.5Q365 499 398 485V425Q369 435 336 441.5Q303 448 253 448Q216 448 192.5 441.5Q169 435 156 423.5Q143 412 138 396Q133 380 133 362Q133 345 137.5 332.5Q142 320 154 311Q166 302 188.5 296Q211 290 247 287Q300 282 334.5 270.5Q369 259 388.5 241Q408 223 415.5 199Q423 175 423 144Q423 117 414.5 91.5Q406 66 386.5 45Q367 24 334.5 10Q302 -4 255 -8Q244 -24 241.5 -40.5Q239 -57 263 -71Q288 -85 295 -101Q302 -117 299 -133Q296 -149 286.5 -162.5Q277 -176 268 -185Z" glyph-name="scedilla" horiz-adv-x="490" unicode="&#351;" /><glyph d="M217 -185Q227 -176 236 -165Q245 -154 249.5 -142.5Q254 -131 252.5 -121.5Q251 -112 241 -106Q223 -96 217 -83.5Q211 -71 212.5 -58Q214 -45 220.5 -32.5Q227 -20 234 -10Q215 -9 193 -6.5Q171 -4 150.5 -0.5Q130 3 112.5 7.5Q95 12 85 17V75Q108 66 151 58Q194 50 250 50Q333 50 366 74.5Q399 99 399 145Q399 186 371 204.5Q343 223 269 229Q215 234 177.5 243Q140 252 117.5 267Q95 282 85 304Q75 326 75 358Q75 392 86 420Q97 448 121.5 468Q146 488 185.5 499Q225 510 281 510Q319 510 363 504.5Q407 499 440 485V427Q411 437 372 443.5Q333 450 280 450Q201 450 170 428Q139 406 139 358Q139 339 146.5 327Q154 315 170.5 307Q187 299 212.5 294.5Q238 290 274 287Q327 282 363.5 272Q400 262 422.5 245.5Q445 229 455 204.5Q465 180 465 146Q465 116 455.5 89.5Q446 63 424 42Q402 21 366.5 7.5Q331 -6 280 -9Q269 -25 266.5 -41Q264 -57 288 -71Q313 -85 320 -101Q327 -117 324 -133Q321 -149 311.5 -162.5Q302 -176 293 -185Z" glyph-name="scedilla.smcp" horiz-adv-x="540" /><glyph d="M380 575 245 691 110 575H80L205 750H285L410 575ZM133 362Q133 345 137.5 332.5Q142 320 154 311Q166 302 188.5 296Q211 290 247 287Q300 282 334.5 270.5Q369 259 388.5 241Q408 223 415.5 199Q423 175 423 144Q423 115 413 87.5Q403 60 379.5 38Q356 16 317.5 3Q279 -10 222 -10Q204 -10 183 -8Q162 -6 141.5 -2.5Q121 1 103 5.5Q85 10 73 15V75Q96 67 132.5 59.5Q169 52 223 52Q262 52 287.5 59.5Q313 67 328 80Q343 93 349 109Q355 125 355 143Q355 160 351.5 174.5Q348 189 336 200Q324 211 301.5 218.5Q279 226 242 229Q188 234 153.5 245.5Q119 257 100 274.5Q81 292 74 314Q67 336 67 362Q67 389 76.5 415.5Q86 442 107.5 463Q129 484 165 497Q201 510 254 510Q289 510 327 504.5Q365 499 398 485V425Q369 435 336 441.5Q303 448 253 448Q216 448 192.5 441.5Q169 435 156 423.5Q143 412 138 396Q133 380 133 362Z" glyph-name="scircumflex" horiz-adv-x="490" unicode="&#349;" /><glyph d="M405 575 270 691 135 575H105L230 750H310L435 575ZM139 358Q139 339 146.5 327Q154 315 170.5 307Q187 299 212.5 294.5Q238 290 274 287Q327 282 363.5 272Q400 262 422.5 245.5Q445 229 455 204.5Q465 180 465 146Q465 114 454 85.5Q443 57 417.5 36Q392 15 350.5 2.5Q309 -10 249 -10Q230 -10 206.5 -8Q183 -6 159.5 -2Q136 2 116.5 7Q97 12 85 17V75Q108 66 151 58Q194 50 250 50Q333 50 366 74.5Q399 99 399 145Q399 186 371 204.5Q343 223 269 229Q215 234 177.5 243Q140 252 117.5 267Q95 282 85 304Q75 326 75 358Q75 392 86 420Q97 448 121.5 468Q146 488 185.5 499Q225 510 281 510Q319 510 363 504.5Q407 499 440 485V427Q411 437 372 443.5Q333 450 280 450Q201 450 170 428Q139 406 139 358Z" glyph-name="scircumflex.smcp" horiz-adv-x="540" /><glyph d="M304 -75 233 -250H186L210 -75ZM133 362Q133 345 137.5 332.5Q142 320 154 311Q166 302 188.5 296Q211 290 247 287Q300 282 334.5 270.5Q369 259 388.5 241Q408 223 415.5 199Q423 175 423 144Q423 115 413 87.5Q403 60 379.5 38Q356 16 317.5 3Q279 -10 222 -10Q204 -10 183 -8Q162 -6 141.5 -2.5Q121 1 103 5.5Q85 10 73 15V75Q96 67 132.5 59.5Q169 52 223 52Q262 52 287.5 59.5Q313 67 328 80Q343 93 349 109Q355 125 355 143Q355 160 351.5 174.5Q348 189 336 200Q324 211 301.5 218.5Q279 226 242 229Q188 234 153.5 245.5Q119 257 100 274.5Q81 292 74 314Q67 336 67 362Q67 389 76.5 415.5Q86 442 107.5 463Q129 484 165 497Q201 510 254 510Q289 510 327 504.5Q365 499 398 485V425Q369 435 336 441.5Q303 448 253 448Q216 448 192.5 441.5Q169 435 156 423.5Q143 412 138 396Q133 380 133 362Z" glyph-name="scommaaccent" horiz-adv-x="490" unicode="&#537;" /><glyph d="M223 -250 241 -170Q225 -164 216.5 -150.5Q208 -137 208 -120Q208 -97 224 -81Q240 -65 263 -65Q286 -65 302 -81Q318 -97 318 -120Q318 -135 312 -147L265 -250ZM139 358Q139 339 146.5 327Q154 315 170.5 307Q187 299 212.5 294.5Q238 290 274 287Q327 282 363.5 272Q400 262 422.5 245.5Q445 229 455 204.5Q465 180 465 146Q465 114 454 85.5Q443 57 417.5 36Q392 15 350.5 2.5Q309 -10 249 -10Q230 -10 206.5 -8Q183 -6 159.5 -2Q136 2 116.5 7Q97 12 85 17V75Q108 66 151 58Q194 50 250 50Q333 50 366 74.5Q399 99 399 145Q399 186 371 204.5Q343 223 269 229Q215 234 177.5 243Q140 252 117.5 267Q95 282 85 304Q75 326 75 358Q75 392 86 420Q97 448 121.5 468Q146 488 185.5 499Q225 510 281 510Q319 510 363 504.5Q407 499 440 485V427Q411 437 372 443.5Q333 450 280 450Q201 450 170 428Q139 406 139 358Z" glyph-name="scommaaccent.smcp" horiz-adv-x="540" /><glyph d="M524 228Q524 267 514 289Q504 311 483.5 323.5Q463 336 432 343Q401 350 358 358Q307 366 268 376.5Q229 387 203 401Q158 382 141.5 348Q125 314 125 272Q125 233 135 211Q145 189 165.5 176Q186 163 217 156.5Q248 150 291 142Q341 133 380 123Q419 113 445 99Q490 118 507 152Q524 186 524 228ZM114 555Q114 588 124 624Q134 660 162 690Q190 720 239.5 740Q289 760 368 760Q437 760 484.5 749.5Q532 739 563 725V657Q512 679 467 687.5Q422 696 367 696Q311 696 276 685Q241 674 220.5 654.5Q200 635 192.5 609.5Q185 584 185 554Q185 516 197.5 494Q210 472 234 458.5Q258 445 292 437.5Q326 430 369 422Q436 410 479.5 395.5Q523 381 548.5 359Q574 337 584.5 305Q595 273 595 227Q595 206 590.5 182.5Q586 159 575.5 136.5Q565 114 547.5 93Q530 72 503 56Q535 15 535 -55Q535 -88 525 -124Q515 -160 487 -190Q459 -220 409.5 -240Q360 -260 281 -260Q212 -260 164.5 -249.5Q117 -239 86 -225V-157Q111 -168 134.5 -175.5Q158 -183 181.5 -187.5Q205 -192 229.5 -194Q254 -196 282 -196Q337 -196 372.5 -185Q408 -174 428.5 -154.5Q449 -135 456.5 -109.5Q464 -84 464 -54Q464 -17 451.5 5.5Q439 28 415 41.5Q391 55 357 62.5Q323 70 280 78Q213 90 169.5 104.5Q126 119 100.5 141Q75 163 64.5 194.5Q54 226 54 273Q54 294 58.5 317.5Q63 341 73.5 363.5Q84 386 101.5 407Q119 428 146 444Q129 464 121.5 491.5Q114 519 114 555Z" glyph-name="section" horiz-adv-x="649" unicode="&#167;" /><glyph d="M55 375Q55 398 71 414Q87 430 110 430Q133 430 149 414Q165 398 165 375Q165 352 149 336Q133 320 110 320Q87 320 71 336Q55 352 55 375ZM63 -114 88 -5Q72 1 63.5 14.5Q55 28 55 45Q55 68 71 84Q87 100 110 100Q133 100 149 84Q165 68 165 45Q165 30 159 18L98 -114Z" glyph-name="semicolon" horiz-adv-x="220" unicode=";" /><glyph d="M115 0 480 688H50V750H550V702L203 0Z" glyph-name="seven" horiz-adv-x="600" unicode="7" /><glyph d="M115 0 480 688H50V750H550V702L203 0Z" glyph-name="seven.LP" horiz-adv-x="600" /><glyph d="M81 -250 373 438H25V500H440V452L158 -250Z" glyph-name="seven.OP" horiz-adv-x="465" /><glyph d="M144 231Q144 201 150.5 169.5Q157 138 175 111.5Q193 85 226.5 68.5Q260 52 314 52Q365 52 395.5 70.5Q426 89 442.5 116Q459 143 464.5 174Q470 205 470 231Q470 256 466 287.5Q462 319 446 346Q430 373 399 391.5Q368 410 314 410Q261 410 228 393Q195 376 176 349.5Q157 323 150.5 291.5Q144 260 144 231ZM345 696Q286 696 245.5 672Q205 648 180 605.5Q155 563 144.5 503.5Q134 444 134 374Q143 391 158 408.5Q173 426 195.5 440Q218 454 247 463Q276 472 314 472Q391 472 436 448.5Q481 425 504 389.5Q527 354 533.5 311.5Q540 269 540 231Q540 193 532 150.5Q524 108 500 72.5Q476 37 431.5 13.5Q387 -10 314 -10Q233 -10 185 15.5Q137 41 111.5 87.5Q86 134 78 199.5Q70 265 70 345Q70 437 82 513.5Q94 590 125 644.5Q156 699 209 729.5Q262 760 345 760Q418 760 459.5 748.5Q501 737 520 726V660Q492 674 448.5 685Q405 696 345 696Z" glyph-name="six" horiz-adv-x="600" unicode="6" /><glyph d="M144 231Q144 201 150.5 169.5Q157 138 175 111.5Q193 85 226.5 68.5Q260 52 314 52Q365 52 395.5 70.5Q426 89 442.5 116Q459 143 464.5 174Q470 205 470 231Q470 256 466 287.5Q462 319 446 346Q430 373 399 391.5Q368 410 314 410Q261 410 228 393Q195 376 176 349.5Q157 323 150.5 291.5Q144 260 144 231ZM345 696Q286 696 245.5 672Q205 648 180 605.5Q155 563 144.5 503.5Q134 444 134 374Q143 391 158 408.5Q173 426 195.5 440Q218 454 247 463Q276 472 314 472Q391 472 436 448.5Q481 425 504 389.5Q527 354 533.5 311.5Q540 269 540 231Q540 193 532 150.5Q524 108 500 72.5Q476 37 431.5 13.5Q387 -10 314 -10Q233 -10 185 15.5Q137 41 111.5 87.5Q86 134 78 199.5Q70 265 70 345Q70 437 82 513.5Q94 590 125 644.5Q156 699 209 729.5Q262 760 345 760Q418 760 459.5 748.5Q501 737 520 726V660Q492 674 448.5 685Q405 696 345 696Z" glyph-name="six.LP" horiz-adv-x="600" /><glyph d="M144 231Q144 201 150.5 169.5Q157 138 175 111.5Q193 85 226.5 68.5Q260 52 314 52Q365 52 395.5 70.5Q426 89 442.5 116Q459 143 464.5 174Q470 205 470 231Q470 256 466 287.5Q462 319 446 346Q430 373 399 391.5Q368 410 314 410Q261 410 228 393Q195 376 176 349.5Q157 323 150.5 291.5Q144 260 144 231ZM345 696Q286 696 245.5 672Q205 648 180 605.5Q155 563 144.5 503.5Q134 444 134 374Q143 391 158 408.5Q173 426 195.5 440Q218 454 247 463Q276 472 314 472Q391 472 436 448.5Q481 425 504 389.5Q527 354 533.5 311.5Q540 269 540 231Q540 193 532 150.5Q524 108 500 72.5Q476 37 431.5 13.5Q387 -10 314 -10Q233 -10 185 15.5Q137 41 111.5 87.5Q86 134 78 199.5Q70 265 70 345Q70 437 82 513.5Q94 590 125 644.5Q156 699 209 729.5Q262 760 345 760Q418 760 459.5 748.5Q501 737 520 726V660Q492 674 448.5 685Q405 696 345 696Z" glyph-name="six.OP" horiz-adv-x="605" /><glyph glyph-name="sixperemspace" horiz-adv-x="167" unicode="&#8198;" /><glyph d="M0 -206 347 816H420L73 -206Z" glyph-name="slash" horiz-adv-x="420" unicode="/" /><glyph glyph-name="space" horiz-adv-x="200" unicode=" " /><glyph d="M191 422H470V361H191V61H560V0H41V61H121V361H41V422H121V562Q121 605 134.5 641Q148 677 176 703.5Q204 730 248 745Q292 760 352 760Q370 760 395.5 757.5Q421 755 447.5 751Q474 747 498.5 741Q523 735 540 728V668Q525 673 503.5 678Q482 683 457 687.5Q432 692 405 695Q378 698 352 698Q266 698 228.5 666.5Q191 635 191 563Z" glyph-name="sterling" horiz-adv-x="600" unicode="&#163;" /><glyph d="M171 287H390V226H171V61H480V0H31V61H101V226H31V287H101V342Q101 379 110.5 410Q120 441 143.5 463.5Q167 486 205.5 498Q244 510 302 510Q339 510 383 503.5Q427 497 460 483V423Q431 433 392.5 440.5Q354 448 302 448Q230 448 200.5 423Q171 398 171 343Z" glyph-name="sterling.OP" horiz-adv-x="545" /><glyph d="M70 375Q70 455 100 525Q130 595 182.5 647.5Q235 700 305 730Q375 760 455 760Q535 760 605 730Q675 700 727.5 647.5Q780 595 810 525Q840 455 840 375Q840 295 810 225Q780 155 727.5 102.5Q675 50 605 20Q535 -10 455 -10Q375 -10 305 20Q235 50 182.5 102.5Q130 155 100 225Q70 295 70 375Z" glyph-name="summation" horiz-adv-x="910" unicode="&#8721;" /><glyph d="M342 -7Q322 -10 303 -10Q272 -12 242.5 -5.5Q213 1 190 17Q167 33 152.5 58.5Q138 84 137 121V445H37V476L137 505V640L207 660V500H362V445H207V123Q210 77 234 61Q258 45 303 45Q313 45 322.5 45.5Q332 46 342 47Z" glyph-name="t" horiz-adv-x="407" unicode="t" /><glyph d="M298 439V0H227V439H60V500H465V439Z" glyph-name="t.smcp" horiz-adv-x="525" /><glyph d="M332 250H207V123Q210 77 234 61Q258 45 303 45Q313 45 322.5 45.5Q332 46 342 47V-7Q322 -10 303 -10Q272 -12 242.5 -5.5Q213 1 190 17Q167 33 152.5 58.5Q138 84 137 121V250H37V305H137V445H37V476L137 505V640L207 660V500H362V445H207V305H332Z" glyph-name="tbar" horiz-adv-x="407" unicode="&#359;" /><glyph d="M298 439V284H400V229H298V0H227V229H125V284H227V439H60V500H465V439Z" glyph-name="tbar.smcp" horiz-adv-x="525" /><glyph d="M327 575H280L304 750H398ZM342 -7Q322 -10 303 -10Q272 -12 242.5 -5.5Q213 1 190 17Q167 33 152.5 58.5Q138 84 137 121V445H37V476L137 505V640L207 660V500H362V445H207V123Q210 77 234 61Q258 45 303 45Q313 45 322.5 45.5Q332 46 342 47Z" glyph-name="tcaron" horiz-adv-x="407" unicode="&#357;" /><glyph d="M128 750 263 634 398 750H428L303 575H223L98 750ZM298 439V0H227V439H60V500H465V439Z" glyph-name="tcaron.smcp" horiz-adv-x="525" /><glyph d="M206 -250H159L183 -75H277ZM342 -7Q322 -10 303 -10Q272 -12 242.5 -5.5Q213 1 190 17Q167 33 152.5 58.5Q138 84 137 121V445H37V476L137 505V640L207 660V500H362V445H207V123Q210 77 234 61Q258 45 303 45Q313 45 322.5 45.5Q332 46 342 47Z" glyph-name="tcommaaccent" horiz-adv-x="407" unicode="&#355;" /><glyph d="M225 -250 243 -170Q227 -164 218.5 -150.5Q210 -137 210 -120Q210 -97 226 -81Q242 -65 265 -65Q288 -65 304 -81Q320 -97 320 -120Q320 -135 314 -147L267 -250ZM298 439V0H227V439H60V500H465V439Z" glyph-name="tcommaaccent.smcp" horiz-adv-x="525" /><glyph glyph-name="thinspace" horiz-adv-x="100" unicode="&#8201;" /><glyph d="M204 438Q170 427 150 416V84Q179 68 210 60Q241 52 290 52Q335 52 361.5 69Q388 86 402.5 114Q417 142 421 177.5Q425 213 425 250Q425 287 421 322.5Q417 358 402.5 386Q388 414 361.5 431Q335 448 290 448Q237 448 204 438ZM150 750V469Q182 490 218.5 500Q255 510 290 510Q350 510 390 489.5Q430 469 453 434Q476 399 485.5 351.5Q495 304 495 250Q495 196 485.5 148.5Q476 101 453 66Q430 31 390 10.5Q350 -10 290 -10Q253 -10 219 0.5Q185 11 150 31V-250H80V750Z" glyph-name="thorn" horiz-adv-x="565" unicode="&#254;" /><glyph d="M388 250Q388 268 384.5 286Q381 304 370.5 318Q360 332 340.5 341Q321 350 290 350H156V150H290Q321 150 340.5 159Q360 168 370.5 182Q381 196 384.5 214Q388 232 388 250ZM156 89V0H90V500H156V411H292Q338 411 370 398Q402 385 422 363Q442 341 450.5 311.5Q459 282 459 250Q459 218 450 188.5Q441 159 421.5 137Q402 115 370 102Q338 89 292 89Z" glyph-name="thorn.smcp" horiz-adv-x="520" /><glyph d="M261 54Q324 54 364 67Q404 80 427 101.5Q450 123 458.5 151.5Q467 180 467 211Q467 290 423 323Q379 356 286 356H150V422H286Q328 422 358 434Q388 446 406.5 465.5Q425 485 433.5 509Q442 533 442 558Q442 587 434 612Q426 637 405 656Q384 675 347 685.5Q310 696 253 696Q227 696 204 694Q181 692 158.5 687.5Q136 683 113 675.5Q90 668 65 657V725Q96 739 141.5 749.5Q187 760 252 760Q328 760 379 744.5Q430 729 460.5 701.5Q491 674 503.5 637Q516 600 516 558Q516 531 507.5 505.5Q499 480 484 458.5Q469 437 448.5 420Q428 403 404 394Q436 387 461.5 370Q487 353 504.5 328.5Q522 304 531.5 274Q541 244 541 211Q541 166 527.5 125.5Q514 85 481.5 55Q449 25 395 7.5Q341 -10 260 -10Q195 -10 145.5 0.5Q96 11 65 25V93Q116 71 162 62.5Q208 54 261 54Z" glyph-name="three" horiz-adv-x="600" unicode="3" /><glyph d="M261 54Q324 54 364 67Q404 80 427 101.5Q450 123 458.5 151.5Q467 180 467 211Q467 290 423 323Q379 356 286 356H150V422H286Q328 422 358 434Q388 446 406.5 465.5Q425 485 433.5 509Q442 533 442 558Q442 587 434 612Q426 637 405 656Q384 675 347 685.5Q310 696 253 696Q227 696 204 694Q181 692 158.5 687.5Q136 683 113 675.5Q90 668 65 657V725Q96 739 141.5 749.5Q187 760 252 760Q328 760 379 744.5Q430 729 460.5 701.5Q491 674 503.5 637Q516 600 516 558Q516 531 507.5 505.5Q499 480 484 458.5Q469 437 448.5 420Q428 403 404 394Q436 387 461.5 370Q487 353 504.5 328.5Q522 304 531.5 274Q541 244 541 211Q541 166 527.5 125.5Q514 85 481.5 55Q449 25 395 7.5Q341 -10 260 -10Q195 -10 145.5 0.5Q96 11 65 25V93Q116 71 162 62.5Q208 54 261 54Z" glyph-name="three.LP" horiz-adv-x="600" /><glyph d="M223 448Q177 448 136 438.5Q95 429 65 418V482Q79 488 98.5 493Q118 498 140 501.5Q162 505 183.5 507.5Q205 510 223 510Q289 510 333.5 494Q378 478 405 450Q432 422 444 385.5Q456 349 456 308Q456 284 449 259Q442 234 429 212Q416 190 397 172Q378 154 354 144Q386 135 410 117Q434 99 449.5 74Q465 49 473 20Q481 -9 481 -39Q481 -83 468 -123Q455 -163 425.5 -193.5Q396 -224 348 -242Q300 -260 230 -260Q175 -260 133 -250.5Q91 -241 65 -228V-166Q93 -177 132.5 -187.5Q172 -198 230 -198Q284 -198 318.5 -184.5Q353 -171 372.5 -148.5Q392 -126 399.5 -97.5Q407 -69 407 -39Q407 37 367.5 71.5Q328 106 236 106H125V172H236Q278 172 306.5 184Q335 196 351.5 215.5Q368 235 375 259.5Q382 284 382 308Q382 336 375.5 361Q369 386 352 405.5Q335 425 303.5 436.5Q272 448 223 448Z" glyph-name="three.OP" horiz-adv-x="535" /><glyph glyph-name="threeperemspace" horiz-adv-x="333" unicode="&#8196;" /><glyph d="M690 308H60V374H690Z" glyph-name="threequarteremdash" horiz-adv-x="750" /><glyph d="M355 659Q374 659 384 664.5Q394 670 398.5 677.5Q403 685 403.5 694Q404 703 404 711L461 710Q465 657 435 628.5Q405 600 351 600Q320 600 301 610.5Q282 621 267.5 633Q253 645 239 655.5Q225 666 204 666Q185 666 175.5 660.5Q166 655 161.5 647.5Q157 640 156.5 630.5Q156 621 156 614L99 615Q95 668 124.5 696.5Q154 725 208 725Q239 725 258 714.5Q277 704 291.5 692Q306 680 320 669.5Q334 659 355 659Z" glyph-name="tilde" horiz-adv-x="602" unicode="&#732;" /><glyph d="M134 720V500H98V720H15V750H217V720ZM386 532 301 705 303 500H270V750H313L400 568L488 750H530V500H498L500 705L415 532Z" glyph-name="trademark" horiz-adv-x="575" unicode="&#8482;" /><glyph d="M465 560Q465 589 458.5 614Q452 639 433.5 657Q415 675 382 685.5Q349 696 297 696Q271 696 248 694Q225 692 202.5 687.5Q180 683 157 675.5Q134 668 109 657V725Q140 739 185.5 749.5Q231 760 296 760Q375 760 422 740.5Q469 721 494.5 691.5Q520 662 528 626.5Q536 591 536 560Q536 534 530.5 512.5Q525 491 513.5 470.5Q502 450 485 428.5Q468 407 444 383L140 65H536V0H50V46L418 447Q438 469 451.5 497.5Q465 526 465 560Z" glyph-name="two" horiz-adv-x="600" unicode="2" /><glyph d="M465 560Q465 589 458.5 614Q452 639 433.5 657Q415 675 382 685.5Q349 696 297 696Q271 696 248 694Q225 692 202.5 687.5Q180 683 157 675.5Q134 668 109 657V725Q140 739 185.5 749.5Q231 760 296 760Q375 760 422 740.5Q469 721 494.5 691.5Q520 662 528 626.5Q536 591 536 560Q536 534 530.5 512.5Q525 491 513.5 470.5Q502 450 485 428.5Q468 407 444 383L140 65H536V0H50V46L418 447Q438 469 451.5 497.5Q465 526 465 560Z" glyph-name="two.LP" horiz-adv-x="600" /><glyph d="M454 349Q454 302 430 265.5Q406 229 345 188L158 62H474V0H56V46L340 257Q366 277 376 299.5Q386 322 386 350Q386 404 351.5 426Q317 448 249 448Q201 448 160.5 438.5Q120 429 90 418V482Q104 488 123.5 493Q143 498 165 501.5Q187 505 208.5 507.5Q230 510 248 510Q306 510 345.5 497.5Q385 485 409 463Q433 441 443.5 412Q454 383 454 349Z" glyph-name="two.OP" horiz-adv-x="530" /><glyph d="M145 134Q145 85 171.5 67Q198 49 245 49Q294 49 323 57Q352 65 380 81V500H450V0H411L396 42Q326 -10 245 -10Q155 -10 115 29Q75 68 75 140V500H145Z" glyph-name="u" horiz-adv-x="530" unicode="u" /><glyph d="M300 -10Q188 -10 136.5 35Q85 80 85 160V500H155V160Q155 100 194.5 74.5Q234 49 300 49Q366 49 405.5 74.5Q445 100 445 160V500H515V160Q515 80 463.5 35Q412 -10 300 -10Z" glyph-name="u.smcp" horiz-adv-x="600" /><glyph d="M248 575 328 750H423L278 575ZM145 134Q145 85 171.5 67Q198 49 245 49Q294 49 323 57Q352 65 380 81V500H450V0H411L396 42Q326 -10 245 -10Q155 -10 115 29Q75 68 75 140V500H145Z" glyph-name="uacute" horiz-adv-x="530" unicode="&#250;" /><glyph d="M285 575 365 750H460L315 575ZM300 -10Q188 -10 136.5 35Q85 80 85 160V500H155V160Q155 100 194.5 74.5Q234 49 300 49Q366 49 405.5 74.5Q445 100 445 160V500H515V160Q515 80 463.5 35Q412 -10 300 -10Z" glyph-name="uacute.smcp" horiz-adv-x="600" /><glyph d="M263 585Q227 585 199 593.5Q171 602 151 621Q131 640 120 671.5Q109 703 108 750H149Q151 696 178 670.5Q205 645 263 645Q321 645 348 670.5Q375 696 377 750H418Q417 703 406 671.5Q395 640 375 621Q355 602 327 593.5Q299 585 263 585ZM145 134Q145 85 171.5 67Q198 49 245 49Q294 49 323 57Q352 65 380 81V500H450V0H411L396 42Q326 -10 245 -10Q155 -10 115 29Q75 68 75 140V500H145Z" glyph-name="ubreve" horiz-adv-x="530" unicode="&#365;" /><glyph d="M300 565Q264 565 236 575Q208 585 188 607Q168 629 157 664.5Q146 700 145 750H196Q197 716 202.5 692Q208 668 220 653Q232 638 251.5 631.5Q271 625 300 625Q358 625 380 653.5Q402 682 404 750H455Q454 700 443 664.5Q432 629 412 607Q392 585 364 575Q336 565 300 565ZM300 -10Q188 -10 136.5 35Q85 80 85 160V500H155V160Q155 100 194.5 74.5Q234 49 300 49Q366 49 405.5 74.5Q445 100 445 160V500H515V160Q515 80 463.5 35Q412 -10 300 -10Z" glyph-name="ubreve.smcp" horiz-adv-x="600" /><glyph d="M398 575 263 691 128 575H98L223 750H303L428 575ZM145 134Q145 85 171.5 67Q198 49 245 49Q294 49 323 57Q352 65 380 81V500H450V0H411L396 42Q326 -10 245 -10Q155 -10 115 29Q75 68 75 140V500H145Z" glyph-name="ucircumflex" horiz-adv-x="530" unicode="&#251;" /><glyph d="M435 575 300 691 165 575H135L260 750H340L465 575ZM300 -10Q188 -10 136.5 35Q85 80 85 160V500H155V160Q155 100 194.5 74.5Q234 49 300 49Q366 49 405.5 74.5Q445 100 445 160V500H515V160Q515 80 463.5 35Q412 -10 300 -10Z" glyph-name="ucircumflex.smcp" horiz-adv-x="600" /><glyph d="M418 685Q418 662 402 646Q386 630 363 630Q340 630 324 646Q308 662 308 685Q308 708 324 724Q340 740 363 740Q386 740 402 724Q418 708 418 685ZM163 630Q140 630 124 646Q108 662 108 685Q108 708 124 724Q140 740 163 740Q186 740 202 724Q218 708 218 685Q218 662 202 646Q186 630 163 630ZM145 134Q145 85 171.5 67Q198 49 245 49Q294 49 323 57Q352 65 380 81V500H450V0H411L396 42Q326 -10 245 -10Q155 -10 115 29Q75 68 75 140V500H145Z" glyph-name="udieresis" horiz-adv-x="530" unicode="&#252;" /><glyph d="M455 685Q455 662 439 646Q423 630 400 630Q377 630 361 646Q345 662 345 685Q345 708 361 724Q377 740 400 740Q423 740 439 724Q455 708 455 685ZM200 630Q177 630 161 646Q145 662 145 685Q145 708 161 724Q177 740 200 740Q223 740 239 724Q255 708 255 685Q255 662 239 646Q223 630 200 630ZM300 -10Q188 -10 136.5 35Q85 80 85 160V500H155V160Q155 100 194.5 74.5Q234 49 300 49Q366 49 405.5 74.5Q445 100 445 160V500H515V160Q515 80 463.5 35Q412 -10 300 -10Z" glyph-name="udieresis.smcp" horiz-adv-x="600" /><glyph d="M248 575 103 750H198L278 575ZM145 134Q145 85 171.5 67Q198 49 245 49Q294 49 323 57Q352 65 380 81V500H450V0H411L396 42Q326 -10 245 -10Q155 -10 115 29Q75 68 75 140V500H145Z" glyph-name="ugrave" horiz-adv-x="530" unicode="&#249;" /><glyph d="M285 575 140 750H235L315 575ZM300 -10Q188 -10 136.5 35Q85 80 85 160V500H155V160Q155 100 194.5 74.5Q234 49 300 49Q366 49 405.5 74.5Q445 100 445 160V500H515V160Q515 80 463.5 35Q412 -10 300 -10Z" glyph-name="ugrave.smcp" horiz-adv-x="600" /><glyph d="M178 575 258 750H353L208 575ZM328 575 408 750H503L358 575ZM145 134Q145 85 171.5 67Q198 49 245 49Q294 49 323 57Q352 65 380 81V500H450V0H411L396 42Q326 -10 245 -10Q155 -10 115 29Q75 68 75 140V500H145Z" glyph-name="uhungarumlaut" horiz-adv-x="530" unicode="&#369;" /><glyph d="M193 575 273 750H368L243 575ZM343 575 423 750H518L393 575ZM300 -10Q188 -10 136.5 35Q85 80 85 160V500H155V160Q155 100 194.5 74.5Q234 49 300 49Q366 49 405.5 74.5Q445 100 445 160V500H515V160Q515 80 463.5 35Q412 -10 300 -10Z" glyph-name="uhungarumlaut.smcp" horiz-adv-x="600" /><glyph d="M126 680V745H400V680ZM145 134Q145 85 171.5 67Q198 49 245 49Q294 49 323 57Q352 65 380 81V500H450V0H411L396 42Q326 -10 245 -10Q155 -10 115 29Q75 68 75 140V500H145Z" glyph-name="umacron" horiz-adv-x="530" unicode="&#363;" /><glyph d="M163 640H437V575H163ZM300 -10Q188 -10 136.5 35Q85 80 85 160V500H155V160Q155 100 194.5 74.5Q234 49 300 49Q366 49 405.5 74.5Q445 100 445 160V500H515V160Q515 80 463.5 35Q412 -10 300 -10Z" glyph-name="umacron.smcp" horiz-adv-x="600" /><glyph d="M320 -250H0V-184H320Z" glyph-name="underscore" horiz-adv-x="320" unicode="_" /><glyph d="M310 308H60V374H310Z" glyph-name="uni00AD" horiz-adv-x="370" unicode="&#173;" /><glyph d="M145 134Q145 85 171.5 67Q198 49 245 49Q294 49 323 57Q352 65 380 81V500H450V0Q401 -20 372.5 -51.5Q344 -83 344 -122Q344 -145 356.5 -162Q369 -179 398 -179Q415 -179 429.5 -176.5Q444 -174 455 -171V-219Q442 -224 424 -227Q406 -230 384 -230Q339 -230 311 -205Q283 -180 283 -135Q283 -91 308 -53Q333 -15 404 19L396 42Q326 -10 245 -10Q155 -10 115 29Q75 68 75 140V500H145Z" glyph-name="uogonek" horiz-adv-x="530" unicode="&#371;" /><glyph d="M515 160Q515 97 483.5 56Q452 15 385 -1Q337 -21 309.5 -52.5Q282 -84 282 -122Q282 -145 294.5 -162Q307 -179 336 -179Q353 -179 367.5 -176.5Q382 -174 393 -171V-219Q380 -224 362 -227Q344 -230 322 -230Q277 -230 249 -205Q221 -180 221 -135Q221 -56 291 -10Q183 -8 134 37Q85 82 85 160V500H155V160Q155 100 194.5 74.5Q234 49 300 49Q366 49 405.5 74.5Q445 100 445 160V500H515Z" glyph-name="uogonek.smcp" horiz-adv-x="600" /><glyph d="M311 662Q311 690 298.5 700.5Q286 711 263 711Q240 711 227 700.5Q214 690 214 662Q214 635 227 624.5Q240 614 263 614Q286 614 298.5 624.5Q311 635 311 662ZM361 662Q361 611 334.5 588Q308 565 263 565Q218 565 191 588Q164 611 164 662Q164 714 191 737Q218 760 263 760Q308 760 334.5 737Q361 714 361 662ZM145 134Q145 85 171.5 67Q198 49 245 49Q294 49 323 57Q352 65 380 81V500H450V0H411L396 42Q326 -10 245 -10Q155 -10 115 29Q75 68 75 140V500H145Z" glyph-name="uring" horiz-adv-x="530" unicode="&#367;" /><glyph d="M348 662Q348 690 335.5 700.5Q323 711 300 711Q277 711 264 700.5Q251 690 251 662Q251 635 264 624.5Q277 614 300 614Q323 614 335.5 624.5Q348 635 348 662ZM398 662Q398 611 371.5 588Q345 565 300 565Q255 565 228 588Q201 611 201 662Q201 714 228 737Q255 760 300 760Q345 760 371.5 737Q398 714 398 662ZM300 -10Q188 -10 136.5 35Q85 80 85 160V500H155V160Q155 100 194.5 74.5Q234 49 300 49Q366 49 405.5 74.5Q445 100 445 160V500H515V160Q515 80 463.5 35Q412 -10 300 -10Z" glyph-name="uring.smcp" horiz-adv-x="600" /><glyph d="M338 659Q357 659 367 664.5Q377 670 381.5 677.5Q386 685 386.5 694Q387 703 387 711L444 710Q448 657 418 628.5Q388 600 334 600Q303 600 284 610.5Q265 621 250.5 633Q236 645 222 655.5Q208 666 187 666Q168 666 158.5 660.5Q149 655 144.5 647.5Q140 640 139.5 630.5Q139 621 139 614L82 615Q78 668 107.5 696.5Q137 725 191 725Q222 725 241 714.5Q260 704 274.5 692Q289 680 303 669.5Q317 659 338 659ZM145 134Q145 85 171.5 67Q198 49 245 49Q294 49 323 57Q352 65 380 81V500H450V0H411L396 42Q326 -10 245 -10Q155 -10 115 29Q75 68 75 140V500H145Z" glyph-name="utilde" horiz-adv-x="530" unicode="&#361;" /></font>
</defs>
</svg>
