<?xml version="1.0" standalone="no"?>
<!DOCTYPE svg PUBLIC "-//W3C//DTD SVG 1.1//EN" "http://www.w3.org/Graphics/SVG/1.1/DTD/svg11.dtd" >
<svg xmlns="http://www.w3.org/2000/svg">
<metadata></metadata>
<defs>
<font id="apex_sansbook" horiz-adv-x="1228" >
<font-face units-per-em="2048" ascent="1536" descent="-512" />
<missing-glyph horiz-adv-x="409" />
<glyph unicode="&#xfb01;" horiz-adv-x="1386" d="M76 911v64l205 59v215q0 307 368 307q87 0 144 -14v-129q-70 17 -144 17q-231 0 -231 -181v-225h323v-113h-323v-911h-137v911h-205zM987 1403q0 47 33 80t80 33t79.5 -33t32.5 -80t-32.5 -80t-79.5 -33t-80 33t-33 80zM1030 205v819h139v-836q0 -53 19 -72.5t67 -19.5 v-116q-114 0 -169.5 52.5t-55.5 172.5z" />
<glyph unicode="&#xfb02;" horiz-adv-x="1386" d="M76 911v64l205 59v215q0 307 368 307q87 0 144 -14v-129q-70 17 -144 17q-231 0 -231 -181v-225h323v-113h-323v-911h-137v911h-205zM1030 205v1331h139v-1348q0 -53 19 -72.5t67 -19.5v-116q-114 0 -169.5 52.5t-55.5 172.5z" />
<glyph horiz-adv-x="2048" />
<glyph horiz-adv-x="2048" />
<glyph unicode="&#xd;" horiz-adv-x="2048" />
<glyph unicode=" "  horiz-adv-x="409" />
<glyph unicode="&#x09;" horiz-adv-x="409" />
<glyph unicode="&#xa0;" horiz-adv-x="409" />
<glyph unicode="!" horiz-adv-x="450" d="M113 92q0 47 32.5 80t79.5 33t80 -33t33 -80t-33 -79.5t-80 -32.5t-79.5 32.5t-32.5 79.5zM113 1536h225l-72 -1106h-82z" />
<glyph unicode="&#x22;" horiz-adv-x="737" d="M123 1536h205l-64 -512h-78zM410 1536h204l-63 -512h-78z" />
<glyph unicode="#" horiz-adv-x="1198" d="M31 770l41 135h184l92 240h-174l41 135h184l99 256h137l-98 -256h309l98 256h137l-98 -256h184l-41 -135h-194l-92 -240h184l-41 -135h-195l-98 -258h-137l98 258h-309l-98 -258h-138l99 258h-174zM393 905h309l93 240h-310z" />
<glyph unicode="$" d="M133 989q0 163 128.5 237t375.5 74q38 0 61 -2l80 238h154l-94 -248q142 -18 206 -45v-119q-63 21 -182.5 37.5t-226.5 16.5q-89 0 -152 -8t-115 -28t-78 -58t-26 -95q0 -80 90 -110q58 -19 234 -32q24 -2 35 -3q86 -8 142.5 -15.5t115.5 -21t94.5 -33t65 -49.5t42.5 -72 t13 -98q0 -157 -134.5 -238t-390.5 -81h-41l-79 -236h-154l94 248q-182 22 -237 49v119q49 -20 178.5 -39t240.5 -19q90 0 158.5 10t121.5 32t80.5 60.5t27.5 92.5q0 40 -17 68.5t-43 46t-74.5 29t-94.5 17.5t-120 11q-77 7 -126 12.5t-105 15t-90 22t-67.5 31.5t-51 44 t-28.5 60t-11 79z" />
<glyph unicode="%" horiz-adv-x="1894" d="M133 1157q0 201 83.5 300t266.5 99t267 -99.5t84 -299.5t-84 -299.5t-267 -99.5t-266.5 99t-83.5 300zM264 1157q0 -151 50.5 -213.5t168.5 -62.5t168.5 62.5t50.5 213.5t-50.5 214t-168.5 63t-168.5 -63t-50.5 -214zM326 0l1085 1536h158l-1086 -1536h-157zM1061 379 q0 201 83.5 300t266.5 99t266.5 -99t83.5 -300t-83.5 -300t-266.5 -99t-266.5 99t-83.5 300zM1192 379q0 -151 50.5 -214t168.5 -63t168.5 63t50.5 214t-50.5 213.5t-168.5 62.5t-168.5 -62.5t-50.5 -213.5z" />
<glyph unicode="&#x26;" horiz-adv-x="1505" d="M113 461q0 143 75 245.5t191 159.5q-43 157 -43 312q0 53 11 103.5t37.5 101t66 88.5t103 61.5t142.5 23.5q88 0 150.5 -19t95.5 -54.5t47.5 -78t14.5 -97.5q0 -42 -21 -99h-127q14 44 14 99q0 56 -35.5 89.5t-138.5 33.5q-65 0 -110.5 -23t-68 -62.5t-31.5 -79.5t-9 -87 q0 -70 14 -152.5t41.5 -175t74 -185.5t105.5 -178.5t142.5 -160t179.5 -123.5q205 131 205 381q0 313 -256 313q-84 0 -134 -7.5t-112 -27.5v123q121 39 246 39q181 0 290 -109.5t109 -330.5q0 -270 -204 -439q108 -30 235 -30v-135q-208 0 -381 75q-163 -75 -346 -75 q-127 0 -229 27t-180.5 83t-121 150.5t-42.5 220.5zM256 461q0 -92 31.5 -161t90 -111t135.5 -62.5t173 -20.5q98 0 197 27q-159 103 -277 261.5t-186 342.5q-164 -86 -164 -276z" />
<glyph unicode="'" horiz-adv-x="450" d="M123 1536h205l-64 -512h-78z" />
<glyph unicode="(" horiz-adv-x="634" d="M133 625q0 184 24.5 357.5t65 304.5t82 226t84.5 158h154q-43 -64 -85 -158.5t-82.5 -225.5t-65.5 -304.5t-25 -357.5t25 -358t65.5 -305t82.5 -225.5t85 -158.5h-154q-43 63 -84.5 158t-82 226t-65 305t-24.5 358z" />
<glyph unicode=")" horiz-adv-x="634" d="M92 -422q43 64 85 158.5t82.5 225.5t65.5 305t25 358t-25 357.5t-65.5 304.5t-82.5 225.5t-85 158.5h154q43 -63 84.5 -158t82 -226t65 -304.5t24.5 -357.5t-24.5 -358t-65 -305t-82 -226t-84.5 -158h-154z" />
<glyph unicode="*" horiz-adv-x="788" d="M18 1204l50 150l262 -123l-23 -76zM117 913l198 213l66 -45l-139 -262zM315 1536h160l-41 -289h-78zM410 1081l65 45l203 -215l-129 -88zM461 1231l264 125l45 -152l-287 -49z" />
<glyph unicode="+" horiz-adv-x="1064" d="M123 631v135h342v342h135v-342h342v-135h-342v-342h-135v342h-342z" />
<glyph unicode="," horiz-adv-x="450" d="M113 92q0 47 33 80t79 33t79.5 -33t33.5 -80q0 -31 -12 -55l-125 -270h-72l51 223q-32 12 -49.5 39.5t-17.5 62.5z" />
<glyph unicode="-" horiz-adv-x="757" d="M123 631v135h512v-135h-512z" />
<glyph unicode="." horiz-adv-x="450" d="M113 92q0 47 32.5 80t79.5 33t80 -33t33 -80t-33 -79.5t-80 -32.5t-79.5 32.5t-32.5 79.5z" />
<glyph unicode="/" horiz-adv-x="860" d="M0 -422l711 2093h149l-710 -2093h-150z" />
<glyph unicode="0" d="M143 768q0 80 1.5 139.5t5.5 127t12 116.5t20.5 102t31.5 90t45 73.5t60.5 60.5t77.5 43t97.5 27.5t119.5 8.5q73 0 132.5 -12t105 -31.5t81 -54.5t60 -71.5t41.5 -92.5t27 -107.5t15.5 -126t7 -138t1.5 -154.5t-1.5 -154.5t-7 -138t-15.5 -126t-27 -107.5t-41.5 -92.5 t-60 -71.5t-81 -54.5t-105 -31.5t-132.5 -12q-65 0 -119.5 8.5t-97.5 27.5t-77.5 43t-60.5 60.5t-45 73.5t-31.5 90t-20.5 102t-12 116.5t-5.5 127t-1.5 139.5zM287 768q0 -93 1 -142.5t4.5 -125.5t12.5 -115.5t24 -93t39 -81t58 -55t81 -38.5t107 -11q67 0 118.5 17.5 t86 43.5t58.5 77.5t36.5 96.5t19 125t8 140t1.5 162t-1.5 162t-8 140t-19 125t-36.5 96.5t-58.5 77.5t-86 43.5t-118.5 17.5q-60 0 -107 -11t-81 -38.5t-58 -55t-39 -81t-24 -93t-12.5 -115.5t-4.5 -125.5t-1 -142.5z" />
<glyph unicode="1" d="M184 1378v56l430 122h72v-1443h277v-113h-707v113h276v1296z" />
<glyph unicode="2" d="M102 0v94l754 821q96 107 96 232q0 51 -8 90t-30.5 75.5t-60 60.5t-99.5 38t-146 14q-108 0 -195 -17.5t-190 -61.5v139q153 71 383 71q492 0 492 -409q0 -100 -43 -178.5t-146 -184.5l-622 -651h811v-133h-996z" />
<glyph unicode="3" d="M133 51v139q186 -79 402 -79q124 0 210 25.5t130.5 72.5t62.5 100.5t18 122.5q0 159 -89 228t-281 69h-279v135h279q83 0 146.5 24t100 65t54.5 89t18 101q0 64 -17 111.5t-58.5 88t-119.5 61.5t-192 21q-108 0 -195 -17.5t-190 -61.5v139q153 71 383 71q541 0 541 -413 q0 -109 -65 -204t-165 -132q129 -29 205 -133t76 -242q0 -98 -28.5 -176t-92.5 -142t-179.5 -99t-275.5 -35q-246 0 -399 71z" />
<glyph unicode="4" d="M113 512v86l696 958h109v-917h219v-127h-219v-512h-140v512h-665zM289 639h489v674z" />
<glyph unicode="5" d="M150 45v127q173 -66 339 -66q59 0 110 7.5t110 31t100 62.5t68.5 108.5t27.5 161.5q0 64 -13 113.5t-30.5 81.5t-52.5 54.5t-61.5 33.5t-76.5 16.5t-78.5 6.5t-85.5 1h-7h-287v752h809v-127h-670v-502q115 11 195 11q59 0 106.5 -4t101.5 -15.5t95.5 -31t81 -53t65 -79 t41 -111t15.5 -147.5q0 -92 -19.5 -166.5t-51.5 -125.5t-79 -89t-95 -59.5t-107.5 -35t-108.5 -17.5t-105 -4q-203 0 -337 65z" />
<glyph unicode="6" d="M143 707q0 159 15 282.5t53.5 233t101.5 180.5t162 112t232 41q237 0 358 -69v-135q-142 73 -358 73q-433 0 -433 -659q44 82 136.5 141.5t232.5 59.5q87 0 157.5 -17t118 -44.5t83 -68.5t55 -82t31 -94t15 -95t3.5 -93q0 -49 -4.5 -93t-17.5 -95t-34.5 -93.5t-57 -82.5 t-83 -67.5t-115.5 -44.5t-151 -17q-93 0 -166 18t-125.5 49t-90 82.5t-60.5 108t-36 135.5t-17.5 156t-4.5 178zM295 473q0 -367 348 -367q80 0 140 25.5t93.5 63t54 90t26.5 96.5t6 92q0 35 -2 64.5t-10 68.5t-21 70t-37.5 63t-57 53t-82 34.5t-110.5 13.5 q-83 0 -146.5 -23.5t-101 -59.5t-61 -86.5t-31.5 -97.5t-8 -100z" />
<glyph unicode="7" d="M102 1409v127h1024v-98l-710 -1438h-180l747 1409h-881z" />
<glyph unicode="8" d="M96 432q0 126 65 233.5t189 143.5q-97 45 -150 131.5t-53 189.5q0 88 25 161.5t77.5 134.5t145.5 95.5t219 34.5t219 -34.5t145.5 -95.5t77.5 -134.5t25 -161.5q0 -103 -52.5 -189.5t-149.5 -131.5q124 -36 189 -143.5t65 -233.5q0 -74 -17 -139t-56 -123.5t-97.5 -100 t-147.5 -65.5t-201 -24t-200.5 24t-147.5 65.5t-97.5 100t-55.5 123.5t-17 139zM248 432q0 -47 10 -90.5t36 -87.5t66 -76t105.5 -52t148.5 -20t148.5 20t106 52t66.5 76t36 87.5t10 90.5q0 301 -367 301q-366 0 -366 -301zM299 1130q0 -52 17.5 -98t53 -85.5t98.5 -63 t146 -23.5t146 23.5t99 63t53.5 85.5t17.5 98q0 44 -7.5 83.5t-29 80t-55.5 70t-91.5 48t-132.5 18.5t-132.5 -18.5t-91 -47.5t-55 -70t-29 -80.5t-7.5 -83.5z" />
<glyph unicode="9" d="M143 1063q0 49 4.5 93t17.5 95t34.5 93.5t57 82.5t83 67.5t115.5 44.5t151 17q93 0 166 -18t125.5 -49t90 -82.5t60.5 -108t36 -135.5t17.5 -156t4.5 -178q0 -159 -15 -282.5t-53.5 -233t-101.5 -180.5t-161.5 -112t-231.5 -41q-238 0 -359 69v135q142 -73 359 -73 q432 0 432 659q-44 -82 -136.5 -141.5t-232.5 -59.5q-87 0 -157.5 17t-118 44.5t-83 68.5t-55 82t-31 94t-15 95t-3.5 93zM287 1063q0 -42 3.5 -76.5t13.5 -80t32 -80t55.5 -65.5t88.5 -48t126 -17q83 0 146.5 23.5t101 59.5t61 86.5t31.5 97.5t8 100q0 367 -348 367 q-80 0 -140 -25.5t-93 -63t-53.5 -90t-26.5 -96.5t-6 -92z" />
<glyph unicode=":" horiz-adv-x="450" d="M113 92q0 47 32.5 80t79.5 33t80 -33t33 -80t-33 -79.5t-80 -32.5t-79.5 32.5t-32.5 79.5zM113 768q0 47 32.5 80t79.5 33t80 -33t33 -80t-33 -80t-80 -33t-79.5 33t-32.5 80z" />
<glyph unicode=";" horiz-adv-x="450" d="M113 92q0 47 33 80t79 33t79.5 -33t33.5 -80q0 -31 -12 -55l-125 -270h-72l51 223q-32 12 -49.5 39.5t-17.5 62.5zM113 768q0 47 32.5 80t79.5 33t80 -33t33 -80t-33 -80t-80 -33t-79.5 33t-32.5 80z" />
<glyph unicode="&#x3c;" horiz-adv-x="747" d="M123 631v135l512 342v-129l-371 -281l371 -280v-129z" />
<glyph unicode="=" horiz-adv-x="1064" d="M123 496v135h819v-135h-819zM123 766v135h819v-135h-819z" />
<glyph unicode="&#x3e;" horiz-adv-x="747" d="M113 289v129l370 280l-370 281v129l512 -342v-135z" />
<glyph unicode="?" horiz-adv-x="1024" d="M82 1378v127q49 20 145 35.5t170 15.5q105 0 186.5 -15t135.5 -44t91 -64.5t56 -84t27 -94.5t8 -103q0 -76 -18.5 -135.5t-47 -101t-80.5 -78.5t-101.5 -61t-127.5 -56q-37 -15 -63.5 -31t-43 -38t-26 -40.5t-14 -51.5t-5.5 -57.5t-1 -70.5h-84q-11 56 -15 97.5t3.5 90.5 t30.5 86t70 73t118 63q36 14 51 19.5t46.5 19.5t45.5 25t37.5 29.5t35 38t24 46t17.5 59.5t5 72q0 55 -8 94.5t-31 75.5t-62.5 58t-104 35t-153.5 13q-188 0 -317 -47zM262 92q0 47 33 80t80 33t79.5 -33t32.5 -80t-32.5 -79.5t-79.5 -32.5t-80 32.5t-33 79.5z" />
<glyph unicode="@" horiz-adv-x="2129" d="M113 512q0 126 10 231.5t37.5 215t73 195.5t119.5 163.5t173 128.5t238 80.5t311 29.5q173 0 310 -21.5t235 -59t169.5 -97.5t115 -127t69 -158.5t34.5 -181t9 -204.5q0 -138 -14.5 -241.5t-52 -194.5t-100 -148.5t-162 -90t-234.5 -32.5h-80l-31 84q-162 -104 -319 -104 q-96 0 -170 27.5t-120.5 74.5t-76 116t-41.5 145t-12 169t12 169t41.5 145t76 116t120.5 74.5t170 27.5q178 0 319 -106l31 86h80v-897q99 0 171.5 25.5t118.5 71.5t73.5 120t38 160t10.5 203q0 79 -3.5 139t-14 125.5t-28.5 114t-48.5 98t-72.5 84.5t-101 66.5t-134.5 50 t-173 29.5t-215.5 11q-150 0 -270 -26.5t-203.5 -70.5t-145.5 -113t-98 -142.5t-58 -171.5t-29 -187.5t-7 -201.5t7 -201.5t29 -187.5t58 -171.5t98 -142.5t145.5 -113t203.5 -70.5t270 -26.5q337 0 522 90l2 -148q-203 -73 -524 -73q-172 0 -311 29.5t-238 80.5t-173 128.5 t-119.5 163.5t-73 195.5t-37.5 215t-10 231.5zM748 512q0 -48 2.5 -86.5t9.5 -82t19 -76.5t33 -64.5t49.5 -52t70 -32.5t92.5 -12q106 0 176 21q47 12 111 45v680q-65 36 -128 51t-159 15q-51 0 -92.5 -12t-70 -32.5t-49.5 -52t-33 -64.5t-19 -76.5t-9.5 -82t-2.5 -86.5z " />
<glyph unicode="A" horiz-adv-x="1372" d="M92 0l543 1556h102l543 -1556h-160l-141 430h-586l-141 -430h-160zM434 557h504l-252 768z" />
<glyph unicode="B" horiz-adv-x="1320" d="M184 0v1536h486q130 0 225 -31.5t148.5 -88.5t78.5 -128t25 -158q0 -103 -56 -192t-153 -131q126 -34 193 -139t67 -236q0 -94 -27 -169.5t-85.5 -136t-160.5 -93.5t-241 -33h-500zM330 135h362q84 0 146.5 17t99.5 44.5t60 68t30.5 80t7.5 87.5q0 158 -77 227.5 t-263 69.5h-366v-594zM330 864h366q83 0 142 22.5t89.5 62t44 84t13.5 97.5q0 45 -6.5 80.5t-26 72.5t-52.5 62t-89 40.5t-131 15.5h-350v-537z" />
<glyph unicode="C" horiz-adv-x="1310" d="M154 768q0 136 18.5 250t62.5 215.5t112 171.5t172.5 110.5t238.5 40.5q238 0 399 -71v-139q-107 43 -196 61t-203 18q-122 0 -211.5 -49.5t-141.5 -140.5t-76 -206.5t-24 -260.5t24 -260.5t76 -206.5t141.5 -140.5t211.5 -49.5q114 0 203 18t196 61v-139 q-161 -71 -399 -71q-134 0 -238.5 40.5t-172.5 110.5t-112 171.5t-62.5 215.5t-18.5 250z" />
<glyph unicode="D" horiz-adv-x="1402" d="M184 0v1536h418q147 0 259.5 -38.5t185.5 -105.5t118.5 -166t64.5 -210t19 -248t-19 -248t-64.5 -210t-118.5 -166t-185.5 -105.5t-259.5 -38.5h-418zM330 135h280q135 0 230.5 46t149.5 133.5t78 198t24 255.5t-24 255.5t-78 198t-149.5 133.5t-230.5 46h-280v-1266z " />
<glyph unicode="E" d="M184 0v1536h891v-135h-745v-537h674v-135h-674v-594h745v-135h-891z" />
<glyph unicode="F" horiz-adv-x="1187" d="M184 0v1536h871v-135h-725v-537h653v-135h-653v-729h-146z" />
<glyph unicode="G" horiz-adv-x="1413" d="M154 768q0 136 18.5 250t62.5 215.5t112 171.5t172.5 110.5t238.5 40.5q262 0 430 -86v-141q-128 53 -219.5 74.5t-210.5 21.5q-122 0 -211.5 -49.5t-141.5 -140.5t-76 -206.5t-24 -260.5t24 -260.5t76 -206.5t141.5 -140.5t211.5 -49.5q232 0 325 45v516h-315v135h461 v-744q-176 -83 -471 -83q-134 0 -238.5 40.5t-172.5 110.5t-112 171.5t-62.5 215.5t-18.5 250z" />
<glyph unicode="H" horiz-adv-x="1413" d="M184 0v1536h146v-672h753v672h146v-1536h-146v729h-753v-729h-146z" />
<glyph unicode="I" horiz-adv-x="604" d="M229 0v1536h146v-1536h-146z" />
<glyph unicode="J" horiz-adv-x="839" d="M102 -6v131q65 -16 144 -16q107 0 165 39.5t58 134.5v1253h145v-1249q0 -307 -368 -307q-87 0 -144 14z" />
<glyph unicode="K" horiz-adv-x="1280" d="M184 0v1536h142v-766l632 766h189l-598 -688l659 -848h-190l-559 743l-133 -153v-590h-142z" />
<glyph unicode="L" horiz-adv-x="1146" d="M184 0v1536h146v-1401h704v-135h-850z" />
<glyph unicode="M" horiz-adv-x="1781" d="M184 0v1536h187l520 -1116l520 1116h186v-1536h-139l8 1354l-518 -1118h-114l-519 1118l9 -1354h-140z" />
<glyph unicode="N" horiz-adv-x="1433" d="M184 0v1536h105l825 -1245l-4 1245h139v-1536h-104l-826 1245l5 -1245h-140z" />
<glyph unicode="O" horiz-adv-x="1454" d="M154 768q0 94 5 170.5t20.5 160.5t41.5 148t70 124.5t103 99.5t143.5 62t189.5 23q106 0 191 -23.5t144 -62t102.5 -99t69.5 -124.5t41 -148t20 -160.5t5 -170.5t-5 -170.5t-20 -160.5t-41 -148t-69.5 -124.5t-102.5 -99t-144 -62t-191 -23.5q-105 0 -189.5 23t-143.5 62 t-103 99.5t-70 124.5t-41.5 148t-20.5 160.5t-5 170.5zM305 768q0 -83 4 -149t15 -136.5t30 -123t51 -101.5t76 -79.5t106 -49t140 -18.5t140 18.5t106 49t76 79.5t51 101.5t30 123t15 136.5t4 149t-4 149t-15 136.5t-30 123t-51 101.5t-76 79.5t-106 49t-140 18.5 t-140 -18.5t-106 -49t-76 -79.5t-51 -101.5t-30 -123t-15 -136.5t-4 -149z" />
<glyph unicode="P" horiz-adv-x="1269" d="M184 0v1536h469q112 0 200.5 -25t146.5 -68t96 -102.5t54.5 -125t16.5 -140.5t-16.5 -140.5t-54.5 -125t-96 -102.5t-146.5 -68t-200.5 -25h-323v-614h-146zM330 750h332q83 0 146.5 20t100 51.5t59.5 76t30.5 86.5t7.5 91t-7.5 91t-30.5 87t-59.5 76t-100 51.5 t-146.5 20.5h-332v-651z" />
<glyph unicode="Q" horiz-adv-x="1454" d="M154 768q0 101 6 182t22 165t42.5 147.5t70.5 120.5t103 94t142.5 58t186.5 21q105 0 188.5 -21.5t143 -57.5t103 -93.5t70 -121t42 -147.5t21 -165t5.5 -182q0 -89 -3.5 -158.5t-14 -145t-28.5 -132t-48.5 -111.5t-72 -94t-101.5 -68.5t-135 -44.5v-2l588 -118v-148 l-946 254q-82 22 -145 62.5t-104.5 98.5t-69 123t-41.5 148.5t-19.5 161t-5.5 174.5zM311 768q0 -90 3.5 -158t14.5 -139.5t30 -122.5t50.5 -97.5t74.5 -75.5t104.5 -45.5t138.5 -16.5t138.5 16.5t104.5 45.5t74.5 75.5t50.5 97.5t30 122.5t14.5 139.5t3.5 158t-3.5 158 t-14.5 139.5t-30 122.5t-50.5 97.5t-74.5 75.5t-104.5 45.5t-138.5 16.5t-138.5 -16.5t-104.5 -45.5t-74.5 -75.5t-50.5 -97.5t-30 -122.5t-14.5 -139.5t-3.5 -158z" />
<glyph unicode="R" horiz-adv-x="1333" d="M184 0v1536h482q141 0 239.5 -29.5t155 -88t81.5 -135t25 -179.5q0 -163 -65.5 -266t-216.5 -142l366 -696h-184l-334 674q-23 -2 -67 -2h-336v-672h-146zM330 807h364q66 0 117.5 10t85 30.5t56 46t34.5 61t16.5 70t4.5 79.5t-4.5 79.5t-16.5 70t-34.5 61t-56 46 t-85 30.5t-117.5 10h-364v-594z" />
<glyph unicode="S" horiz-adv-x="1280" d="M141 61v136q7 -2 49.5 -17t60 -20.5t61.5 -17.5t77.5 -17t83 -9.5t100.5 -4.5q412 0 412 331q0 63 -13 107t-36.5 74.5t-68.5 50.5t-98.5 32t-135.5 23q-272 34 -382 123t-110 276q0 59 12 113.5t46.5 113.5t89.5 102t150 71t218 28q247 0 400 -71v-139 q-103 44 -194.5 61.5t-207.5 17.5q-88 0 -154 -16t-106.5 -42.5t-65 -66t-33.5 -81t-9 -93.5q0 -39 5.5 -70t19.5 -55t29 -41.5t43.5 -31.5t52 -22.5t65.5 -17t73.5 -13t86.5 -11.5q119 -15 202.5 -42t148 -75t95.5 -123.5t31 -181.5q0 -68 -14.5 -129t-54 -123.5 t-101.5 -107.5t-164 -73.5t-234 -28.5q-104 0 -230.5 24t-199.5 57z" />
<glyph unicode="T" horiz-adv-x="1198" d="M102 1401v135h994v-135h-424v-1401h-146v1401h-424z" />
<glyph unicode="U" horiz-adv-x="1433" d="M174 481v1055h145v-1028q0 -395 398 -395q397 0 397 395v1028h146v-1055q0 -90 -21 -164.5t-54.5 -125.5t-80.5 -90t-95.5 -61.5t-104 -36.5t-99.5 -18.5t-88 -4.5t-88 4.5t-99.5 18.5t-104 36.5t-95.5 61.5t-80.5 90t-54.5 125.5t-21 164.5z" />
<glyph unicode="V" horiz-adv-x="1372" d="M92 1536h160l434 -1325l434 1325h160l-543 -1556h-102z" />
<glyph unicode="W" horiz-adv-x="1863" d="M92 1536h158l260 -1325l344 1325h156l344 -1325l260 1325h158l-340 -1556h-144l-356 1341l-357 -1341h-143z" />
<glyph unicode="X" horiz-adv-x="1351" d="M82 0l506 778l-496 758h178l406 -657l405 657h179l-496 -758l506 -778h-185l-409 674l-410 -674h-184z" />
<glyph unicode="Y" horiz-adv-x="1433" d="M92 1536h176l449 -772l448 772h176l-553 -901v-635h-143v635z" />
<glyph unicode="Z" horiz-adv-x="1310" d="M113 0v94l856 1307h-815v135h1013v-94l-856 -1307h887v-135h-1085z" />
<glyph unicode="[" horiz-adv-x="532" d="M164 -422v2093h276v-135h-131v-1823h131v-135h-276z" />
<glyph unicode="\" horiz-adv-x="860" d="M0 1671h150l710 -2093h-149z" />
<glyph unicode="]" horiz-adv-x="532" d="M92 -287h131v1823h-131v135h277v-2093h-277v135z" />
<glyph unicode="^" horiz-adv-x="1105" d="M164 1024l342 512h135l342 -512h-129l-281 371l-280 -371h-129z" />
<glyph unicode="_" horiz-adv-x="655" d="M0 -377h655v-135h-655v135z" />
<glyph unicode="`" horiz-adv-x="1105" d="M289 1536h194l164 -358h-61z" />
<glyph unicode="a" horiz-adv-x="1075" d="M133 309q0 50 8.5 90t32 81t63 69.5t104.5 50t153 29.5l274 16v57q0 116 -52.5 166t-191.5 50q-153 0 -307 -52v123q127 55 307 55q112 0 189.5 -24t119.5 -71.5t60 -107.5t18 -141v-700h-80l-30 82q-138 -102 -305 -102q-97 0 -169 26.5t-113.5 74t-61 104.5t-19.5 124z M279 309q0 -40 7.5 -71.5t29 -63.5t68.5 -50t116 -18q77 0 135.5 19.5t132.5 62.5v357l-285 -27q-63 -6 -105 -25t-62.5 -49.5t-28.5 -62t-8 -72.5z" />
<glyph unicode="b" horiz-adv-x="1157" d="M164 0v1536h143v-575q128 83 287 83q96 0 170 -27.5t120.5 -74.5t76 -116t41.5 -145t12 -169t-12 -169t-41.5 -145t-76 -116t-120.5 -74.5t-170 -27.5q-158 0 -320 104l-30 -84h-80zM307 172q64 -34 128 -50t159 -16q51 0 92.5 12t70 32.5t49.5 52t33 64.5t19 76.5 t9.5 82t2.5 86.5t-2.5 86.5t-9.5 82t-19 76.5t-33 64.5t-49.5 52t-70 32.5t-92.5 12q-106 0 -176 -21q-64 -21 -111 -45v-680z" />
<glyph unicode="c" horiz-adv-x="1003" d="M143 512q0 94 11.5 169.5t41 145t77.5 116t124.5 74t177.5 27.5q188 0 306 -51v-123q-142 48 -308 48q-54 0 -97 -12t-72.5 -32.5t-51 -52t-34 -64t-20 -76.5t-9.5 -82t-2 -87t2 -87t9.5 -82t20 -76.5t34 -64t51 -52t72.5 -32.5t97 -12q166 0 308 48v-123 q-118 -51 -306 -51q-101 0 -177.5 27.5t-124.5 74t-77.5 116t-41 145t-11.5 169.5z" />
<glyph unicode="d" horiz-adv-x="1157" d="M143 512q0 93 12 169t41.5 145t76 116t120.5 74.5t170 27.5q142 0 287 -83v575h143v-1536h-80l-30 84q-162 -104 -320 -104q-96 0 -170 27.5t-120.5 74.5t-76 116t-41.5 145t-12 169zM287 512q0 -48 2.5 -86.5t9.5 -82t19 -76.5t33 -64.5t49.5 -52t70 -32.5t92.5 -12 q93 0 156 15t131 51v680q-33 17 -111 45q-71 21 -176 21q-51 0 -92.5 -12t-70 -32.5t-49.5 -52t-33 -64.5t-19 -76.5t-9.5 -82t-2.5 -86.5z" />
<glyph unicode="e" horiz-adv-x="1105" d="M143 512q0 94 11.5 169.5t40.5 145t76.5 116t124 74t177.5 27.5q73 0 131 -14.5t98.5 -39t70 -63.5t46.5 -81t27 -100t13.5 -111t3.5 -123v-66h-676q3 -59 10.5 -104.5t27 -91.5t50 -76t81 -49t117.5 -19q111 0 187 13t151 45v-123q-138 -61 -338 -61q-101 0 -177.5 27.5 t-124 74t-76.5 116t-40.5 145t-11.5 169.5zM287 563h532q0 41 -1 68t-4 63.5t-10.5 61t-19 52.5t-30 46t-43.5 33.5t-60 23t-78 7.5q-69 0 -120.5 -20t-81.5 -51.5t-49 -80t-26 -95.5t-9 -108z" />
<glyph unicode="f" horiz-adv-x="833" d="M76 911v64l205 59v215q0 307 368 307q87 0 144 -14v-129q-70 17 -144 17q-231 0 -231 -181v-225h323v-113h-323v-911h-137v911h-205z" />
<glyph unicode="g" horiz-adv-x="1105" d="M68 -215q0 173 211 262v2q-66 46 -66 135q0 77 78 140q-164 91 -164 335q0 385 399 385q86 0 164 -20h348v-78l-172 -49q60 -92 60 -238q0 -385 -400 -385q-72 0 -135 13q-39 -39 -39 -76q0 -38 19 -56.5t59 -23.5l348 -41q147 -15 214 -78.5t67 -195.5q0 -91 -43 -159.5 t-118 -109t-168.5 -60t-203.5 -19.5q-458 0 -458 317zM209 -215q0 -109 75 -150t242 -41q389 0 389 222q0 78 -36 113.5t-129 45.5l-299 35q-112 -30 -177 -82.5t-65 -142.5zM260 659q0 -46 4.5 -79t20.5 -69.5t43.5 -58.5t77.5 -36.5t120 -14.5t120 14.5t78 37t44 58 t20.5 69t4.5 79.5t-4.5 79.5t-20.5 69.5t-44 58.5t-78 37t-120 14.5t-120 -14.5t-77.5 -37t-43.5 -58.5t-20.5 -69.5t-4.5 -79.5z" />
<glyph unicode="h" horiz-adv-x="1085" d="M164 0v1536h139v-575q128 83 281 83q348 0 348 -307v-737h-144v743q0 95 -51.5 135t-152.5 40q-95 0 -157.5 -16t-123.5 -50v-852h-139z" />
<glyph unicode="i" horiz-adv-x="552" d="M154 1403q0 47 32.5 80t79.5 33t80 -33t33 -80t-33 -80t-80 -33t-79.5 33t-32.5 80zM197 205v819h139v-836q0 -53 19 -72.5t67 -19.5v-116q-114 0 -169.5 52.5t-55.5 172.5z" />
<glyph unicode="j" horiz-adv-x="532" d="M-66 -412q49 7 92.5 22t83.5 41.5t63.5 70.5t23.5 100v1202h139v-1221q0 -77 -36.5 -140.5t-95.5 -103.5t-128.5 -63.5t-141.5 -27.5v120zM154 1403q0 47 32.5 80t79.5 33t80 -33t33 -80t-33 -80t-80 -33t-79.5 33t-32.5 80z" />
<glyph unicode="k" horiz-adv-x="1085" d="M164 0v1536h139v-971l463 459h192l-440 -422l496 -602h-178l-404 520l-129 -123v-397h-139z" />
<glyph unicode="l" horiz-adv-x="552" d="M197 205v1331h139v-1348q0 -53 19 -72.5t67 -19.5v-116q-114 0 -169.5 52.5t-55.5 172.5z" />
<glyph unicode="m" horiz-adv-x="1669" d="M164 0v1024h80l30 -84q142 104 299 104q208 0 287 -116q166 116 318 116q166 0 252 -77t86 -230v-737h-144v743q0 95 -50 135t-144 40q-89 0 -150 -16.5t-129 -51.5q12 -50 12 -107v-743h-143v743q0 95 -50.5 135t-144.5 40q-85 0 -143.5 -14.5t-122.5 -47.5v-856h-143z " />
<glyph unicode="n" horiz-adv-x="1085" d="M164 0v1024h80l30 -86q141 106 310 106q348 0 348 -307v-737h-144v743q0 95 -51.5 135t-152.5 40q-94 0 -155 -15.5t-122 -50.5v-852h-143z" />
<glyph unicode="o" horiz-adv-x="1146" d="M143 512q0 100 11 176.5t40 145.5t76.5 113.5t123.5 70.5t179 26t179.5 -26t124.5 -70.5t76.5 -113.5t39.5 -145.5t11 -176.5t-11 -176.5t-39.5 -145.5t-76.5 -113.5t-124.5 -70.5t-179.5 -26t-179 26t-123.5 70.5t-76.5 113.5t-40 145.5t-11 176.5zM287 512 q0 -57 1.5 -95.5t8 -85t18 -76.5t32.5 -61t51 -48.5t74 -28.5t101 -11q65 0 113.5 13t79.5 41.5t50.5 61t28.5 83.5t12 96t3 111t-3 111t-12 96t-28.5 83.5t-50.5 61t-79.5 41.5t-113.5 13q-57 0 -101 -11t-74 -28.5t-51 -48.5t-32.5 -61t-18 -76.5t-8 -85t-1.5 -95.5z" />
<glyph unicode="p" horiz-adv-x="1157" d="M164 -512v1536h80l30 -84q162 104 320 104q96 0 170 -27.5t120.5 -74.5t76 -116t41.5 -145t12 -169t-12 -169t-41.5 -145t-76 -116t-120.5 -74.5t-170 -27.5q-159 0 -287 83v-575h-143zM307 172q47 -24 111 -45q70 -21 176 -21q51 0 92.5 12t70 32.5t49.5 52t33 64.5 t19 76.5t9.5 82t2.5 86.5t-2.5 86.5t-9.5 82t-19 76.5t-33 64.5t-49.5 52t-70 32.5t-92.5 12q-95 0 -159 -16t-128 -50v-680z" />
<glyph unicode="q" horiz-adv-x="1157" d="M143 512q0 93 12 169t41.5 145t76 116t120.5 74.5t170 27.5q179 0 320 -106l30 86h80v-1536h-143v575q-145 -83 -287 -83q-96 0 -170 27.5t-120.5 74.5t-76 116t-41.5 145t-12 169zM287 512q0 -48 2.5 -86.5t9.5 -82t19 -76.5t33 -64.5t49.5 -52t70 -32.5t92.5 -12 q105 0 176 21q47 12 111 45v680q-65 36 -128 51t-159 15q-51 0 -92.5 -12t-70 -32.5t-49.5 -52t-33 -64.5t-19 -76.5t-9.5 -82t-2.5 -86.5z" />
<glyph unicode="r" horiz-adv-x="804" d="M164 0v1024h80l30 -86q141 106 330 106q58 0 123 -10v-133q-53 17 -123 17q-180 0 -297 -66v-852h-143z" />
<glyph unicode="s" horiz-adv-x="1003" d="M137 741q0 58 20 109t62.5 96t119.5 71.5t181 26.5q177 0 295 -51v-123q-142 48 -297 48q-141 0 -193.5 -46t-52.5 -131q0 -36 9 -60t34 -44t71.5 -31.5t119.5 -17.5q107 -10 178.5 -33t111 -61.5t55 -85t15.5 -113.5q0 -50 -12.5 -94t-43 -85t-76.5 -70.5t-117.5 -47.5 t-161.5 -18q-73 0 -164 15.5t-141 35.5v123q131 -48 307 -48q147 0 208.5 52t61.5 135q0 39 -8 65.5t-31 51t-70.5 39t-121.5 20.5q-108 10 -181 33.5t-110.5 60.5t-52.5 79t-15 99z" />
<glyph unicode="t" horiz-adv-x="833" d="M76 911v64l205 59v277l143 41v-328h317v-113h-317v-659q6 -90 53.5 -125t143.5 -35q25 0 79 4v-110q-40 -6 -79 -6q-15 -1 -30 -1q-51 1 -95 11q-58 14 -106 44.5t-77.5 85.5t-31.5 128v663h-205z" />
<glyph unicode="u" horiz-adv-x="1085" d="M154 287v737h143v-750q0 -95 52 -134.5t153 -39.5q94 0 154 15.5t122 50.5v858h144v-1024h-80l-31 86q-141 -106 -309 -106q-348 0 -348 307z" />
<glyph unicode="v" horiz-adv-x="1044" d="M72 1024h157l293 -840l293 840h158l-400 -1044h-102z" />
<glyph unicode="w" horiz-adv-x="1495" d="M72 1024h153l193 -803l254 803h151l254 -803l193 803h153l-288 -1044h-107l-280 890l-281 -890h-107z" />
<glyph unicode="x" horiz-adv-x="1064" d="M72 0l379 526l-359 498h170l270 -401l271 401h170l-359 -498l379 -526h-170l-291 430l-290 -430h-170z" />
<glyph unicode="y" horiz-adv-x="1044" d="M72 1024h164l286 -840l287 840h164l-590 -1536h-154l232 539z" />
<glyph unicode="z" horiz-adv-x="983" d="M92 0v92l600 811h-569v121h747v-92l-600 -811h621v-121h-799z" />
<glyph unicode="{" horiz-adv-x="491" d="M68 557v135h20q46 0 67 20t19 60l-37 676q-6 114 56.5 168.5t175.5 54.5h30v-135h-30q-46 0 -67 -20.5t-19 -59.5l36 -676q3 -91 -61 -155q64 -64 61 -156l-36 -676q-2 -39 19 -59.5t67 -20.5h30v-135h-30q-113 0 -175.5 54.5t-56.5 168.5l37 676q3 74 -76 80h-30z" />
<glyph unicode="|" horiz-adv-x="563" d="M209 -422v2093h145v-2093h-145z" />
<glyph unicode="}" horiz-adv-x="491" d="M92 -287h31q46 0 67 20.5t19 59.5l-37 676q-1 45 18.5 89.5t49.5 66.5q-30 22 -49.5 65.5t-18.5 89.5l37 676q2 39 -19 59.5t-67 20.5h-31v135h31q113 0 175 -54.5t56 -168.5l-37 -676q-2 -40 19 -60t67 -20h21v-135h-31q-79 -6 -76 -80l37 -676q6 -114 -56 -168.5 t-175 -54.5h-31v135z" />
<glyph unicode="~" horiz-adv-x="757" d="M72 694v107q77 -56 153 -56q28 0 55 13.5t50 33t48.5 39t62 33t79.5 13.5q48 0 92.5 -22.5t73.5 -51.5v-107q-77 56 -154 56q-28 0 -55 -13.5t-50 -33t-48.5 -38.5t-61.5 -32.5t-79 -13.5q-48 0 -92.5 22t-73.5 51z" />
<glyph unicode="&#xa1;" horiz-adv-x="450" d="M113 -512l71 1106h82l72 -1106h-225zM113 932q0 47 32.5 79.5t79.5 32.5t80 -32.5t33 -79.5t-33 -80t-80 -33t-79.5 33t-32.5 80z" />
<glyph unicode="&#xa2;" d="M143 768q0 257 151 394.5t415 137.5l79 236h154l-94 -246q126 -17 207 -51v-123q-172 58 -348 58q-195 0 -307.5 -107t-112.5 -299t112.5 -299t307.5 -107q176 0 348 58v-123q-64 -28 -164.5 -44.5t-181.5 -16.5q-46 0 -66 2l-80 -238h-153l98 258q-174 47 -269.5 177 t-95.5 333z" />
<glyph unicode="&#xa3;" d="M84 0v125h164v614h-164v125h164v287q0 184 118 294.5t355 110.5q82 0 202 -19t183 -46v-123q-69 23 -178.5 42.5t-206.5 19.5q-175 0 -252.5 -65t-77.5 -212v-289h572v-125h-572v-614h756v-125h-1063z" />
<glyph unicode="&#xa4;" d="M123 545v135h123v176h-123v135h131q9 109 29 193.5t58.5 156t95 118t140 72t191.5 25.5q81 0 171.5 -14.5t154.5 -42.5v-123q-160 54 -326 54q-95 0 -163 -30t-110.5 -90t-65 -136.5t-32.5 -182.5h572l-47 -135h-533v-176h471l-47 -135h-416q10 -106 32.5 -182.5 t65 -136.5t110.5 -90t163 -30q166 0 326 54v-123q-64 -28 -154.5 -42.5t-171.5 -14.5q-108 0 -191.5 25.5t-140 71.5t-95 117.5t-58.5 156t-29 194.5h-131z" />
<glyph unicode="&#xa5;" d="M51 1536h174l389 -788l390 788h174l-291 -545h229v-135h-301l-94 -176h395v-135h-430v-545h-143v545h-430v135h395l-94 176h-301v135h229z" />
<glyph unicode="&#xa6;" horiz-adv-x="563" d="M209 -422v979h145v-979h-145zM209 692v977h145v-977h-145z" />
<glyph unicode="&#xa7;" horiz-adv-x="1329" d="M111 559q0 101 44 195t144 155q-66 77 -66 228q0 48 9 93t30 94t60.5 89.5t95 73t139 51t187.5 18.5q246 0 399 -71v-139q-103 44 -194 61.5t-207 17.5q-89 0 -155 -15t-107 -40t-66.5 -63t-35 -79t-9.5 -93q0 -43 8.5 -76.5t24 -57.5t40.5 -43t53 -32t68 -23.5 t79.5 -18.5t91.5 -18q8 -1 12 -2q141 -24 227 -52.5t140.5 -75.5t75 -110t20.5 -161q0 -101 -44.5 -195t-144.5 -155q66 -84 66 -228q0 -48 -9 -93t-30 -94t-60.5 -89.5t-95 -73t-139 -51t-187.5 -18.5q-246 0 -399 71v139q103 -44 194.5 -61.5t207.5 -17.5q89 0 155 15 t107 40t66 63t34.5 79t9.5 93q0 43 -8.5 76.5t-24 57.5t-40.5 43t-53 32t-68 23.5t-79.5 18.5t-91.5 18q-8 1 -12 2q-141 24 -227 52.5t-140.5 75.5t-74.5 110t-20 161zM256 557q0 -51 8 -87.5t26 -62t43 -42.5t61.5 -29t79 -21.5t98.5 -19.5q5 -1 8 -1.5t7.5 -1t8.5 -1.5 q229 -42 315 -88q162 67 162 264q0 51 -8 87.5t-26 62t-43 42.5t-61.5 29t-79 21.5t-98.5 19.5q-16 3 -24 4q-224 38 -317 88q-160 -67 -160 -264z" />
<glyph unicode="&#xa8;" horiz-adv-x="1105" d="M256 1403q0 47 33 80t80 33t79.5 -33t32.5 -80t-32.5 -80t-79.5 -33t-80 33t-33 80zM666 1403q0 47 32.5 80t79.5 33t80 -33t33 -80t-33 -80t-80 -33t-79.5 33t-32.5 80z" />
<glyph unicode="&#xa9;" horiz-adv-x="1392" d="M143 512q0 128 29.5 224t77.5 154t120 93.5t147 48t169 12.5t169 -12.5t147 -48t120 -93.5t77.5 -154t29.5 -224q0 -107 -19.5 -191.5t-57 -141.5t-85.5 -97t-111.5 -61.5t-128 -31t-141.5 -9.5q-94 0 -169 13t-147 48.5t-120.5 93.5t-77.5 153.5t-29 223.5zM281 512 q0 -102 20 -175.5t53.5 -117.5t87.5 -70t110.5 -34.5t133.5 -8.5t133.5 8.5t110.5 34.5t87.5 70t54 117.5t20.5 175.5t-20.5 175.5t-54 117.5t-87.5 70t-110.5 34.5t-133.5 8.5t-133.5 -8.5t-110.5 -34.5t-87.5 -70t-53.5 -117.5t-20 -175.5zM406 512q0 166 70.5 237.5 t213.5 71.5q96 0 182 -22v-125q-90 24 -182 24q-85 0 -119 -38t-34 -148t34 -148t119 -38q92 0 182 24v-125q-86 -22 -182 -22q-143 0 -213.5 71.5t-70.5 237.5z" />
<glyph unicode="&#xaa;" horiz-adv-x="757" d="M61 1001q0 109 71 173t214 71l189 10v43q0 75 -36.5 109.5t-125.5 34.5q-114 0 -238 -43v112q110 45 238 45q86 0 145 -18t90.5 -54.5t44.5 -81.5t13 -108v-526h-86l-15 49q-120 -69 -223 -69q-148 0 -214.5 64.5t-66.5 188.5zM195 1001q0 -60 35 -99.5t116 -39.5 q92 0 189 53v240l-191 -16q-71 -6 -110 -42.5t-39 -95.5z" />
<glyph unicode="&#xab;" horiz-adv-x="1013" d="M113 444v136l389 286v-155l-248 -199l248 -199v-157zM502 444v136l389 286v-155l-248 -199l248 -199v-157z" />
<glyph unicode="&#xac;" horiz-adv-x="1351" d="M164 0v1024h1024v-1024h-1024z" />
<glyph unicode="&#xad;" horiz-adv-x="757" d="M123 631v135h512v-135h-512z" />
<glyph unicode="&#xae;" horiz-adv-x="704" d="M72 1280q0 83 22 139.5t63 85t87 40t108 11.5t108.5 -11.5t87.5 -40t63 -85t22 -139.5q0 -82 -22 -138.5t-63 -85.5t-88 -40.5t-108 -11.5t-107.5 11.5t-87.5 40.5t-63 85.5t-22 138.5zM143 1280q0 -65 15 -108.5t45 -65t64.5 -29.5t84.5 -8t84.5 8t64.5 29.5t45 65 t15 108.5t-15 108.5t-45 65t-64.5 29.5t-84.5 8t-84.5 -8t-64.5 -29.5t-45 -65t-15 -108.5zM236 1133v294h131q102 0 102 -94q0 -65 -43 -84l66 -116h-74l-60 104h-57v-104h-65zM301 1300h61q23 0 30 8.5t7 24.5t-7 24.5t-30 8.5h-61v-66z" />
<glyph unicode="&#xaf;" horiz-adv-x="1232" d="M293 1178v133h561v-133h-561z" />
<glyph unicode="&#xb0;" horiz-adv-x="749" d="M92 1280q0 78 24 134t66 86t89.5 43t103.5 13t103.5 -13t89 -43t65.5 -86t24 -134q0 -77 -24 -133t-65.5 -86t-89 -43.5t-103.5 -13.5t-103.5 13.5t-89.5 43.5t-66 86t-24 133zM213 1280q0 -164 162 -164t162 164t-162 164t-162 -164z" />
<glyph unicode="&#xb1;" horiz-adv-x="1064" d="M123 86v135h819v-135h-819zM123 698v136h342v342h135v-342h342v-136h-342v-342h-135v342h-342z" />
<glyph unicode="&#xb4;" horiz-adv-x="1105" d="M586 1178l164 358h194l-297 -358h-61z" />
<glyph unicode="&#xb5;" horiz-adv-x="1095" d="M164 -512v1536h143v-750q0 -95 52 -134.5t153 -39.5q94 0 154 15.5t122 50.5v858h144v-1024h-80l-31 86q-141 -106 -309 -106q-147 0 -209 47v-539h-139z" />
<glyph unicode="&#xb6;" horiz-adv-x="1269" d="M102 1075q0 75 16.5 140.5t54.5 125t96 102.5t146.5 68t200.5 25h469v-1536h-145v614h-145v-614h-146v614h-33q-112 0 -200.5 25t-146.5 68t-96 102.5t-54.5 125t-16.5 140.5zM264 1075q0 -49 7.5 -91t30.5 -86.5t59.5 -76t100 -51.5t146.5 -20h41v651h-41 q-83 0 -146.5 -20.5t-100 -51.5t-59.5 -76t-30.5 -87t-7.5 -91zM795 750h145v651h-145v-651z" />
<glyph unicode="&#xb7;" horiz-adv-x="450" d="M113 768q0 47 32.5 80t79.5 33t80 -33t33 -80t-33 -80t-80 -33t-79.5 33t-32.5 80z" />
<glyph unicode="&#xb8;" horiz-adv-x="1232" d="M467 -102.5q11 32.5 24.5 56t32.5 46.5h92q-23 -29 -33.5 -50t-5 -48t40.5 -47q47 -26 65.5 -60.5t9 -67.5t-25.5 -59t-38 -47h-156q29 25 49.5 56t23.5 60.5t-24 45.5q-39 21 -52.5 51.5t-2.5 63z" />
<glyph unicode="&#xba;" horiz-adv-x="858" d="M72 1153q0 201 84 302t266 101q364 0 364 -403q0 -405 -364 -405q-182 0 -266 102t-84 303zM199 1153q0 -152 53 -219.5t170 -67.5q121 0 180.5 69.5t59.5 217.5t-59.5 216.5t-180.5 68.5q-118 0 -170.5 -66.5t-52.5 -218.5z" />
<glyph unicode="&#xbb;" horiz-adv-x="1013" d="M123 156v157l248 199l-248 199v155l389 -286v-136zM512 156v157l248 199l-248 199v155l389 -286v-136z" />
<glyph unicode="&#xbf;" horiz-adv-x="1024" d="M82 -127q0 76 18.5 135.5t47 101t80.5 78.5t101.5 61t127.5 56q37 15 63.5 31t43 38t26 40.5t14 51.5t5.5 57.5t1 70.5h84q11 -56 15 -97.5t-3.5 -90.5t-30.5 -86t-70 -73t-118 -63q-36 -14 -51 -19.5t-46.5 -19.5t-45.5 -25t-37.5 -29.5t-35 -38t-24 -46t-17.5 -59.5 t-5 -72q0 -55 8 -94.5t31 -75.5t62.5 -58t104 -35t153.5 -13q188 0 317 47v-127q-49 -20 -145 -35.5t-170 -15.5q-105 0 -186.5 15t-135.5 44t-91 64.5t-56 84t-27 94.5t-8 103zM496 932q0 47 32.5 79.5t79.5 32.5t80 -32.5t33 -79.5t-33 -80t-80 -33t-79.5 33t-32.5 80z " />
<glyph unicode="&#xc0;" horiz-adv-x="1372" d="M92 0l543 1556h102l543 -1556h-160l-141 430h-586l-141 -430h-160zM358 2048h195l164 -358h-62zM434 557h504l-252 768z" />
<glyph unicode="&#xc1;" horiz-adv-x="1372" d="M92 0l543 1556h102l543 -1556h-160l-141 430h-586l-141 -430h-160zM434 557h504l-252 768zM655 1690l164 358h195l-297 -358h-62z" />
<glyph unicode="&#xc2;" horiz-adv-x="1372" d="M92 0l543 1556h102l543 -1556h-160l-141 430h-586l-141 -430h-160zM348 1690l256 358h164l256 -358h-61l-277 237l-276 -237h-62zM434 557h504l-252 768z" />
<glyph unicode="&#xc3;" horiz-adv-x="1372" d="M92 0l543 1556h102l543 -1556h-160l-141 430h-586l-141 -430h-160zM315 1772q-7 106 53 165.5t171 59.5q46 0 84 -14t63 -33.5t47 -39.5t49 -34t58 -14q29 0 49.5 8t30 17t14.5 26.5t5.5 27t0.5 27.5l117 -2q7 -106 -54 -165.5t-172 -59.5q-46 0 -84 14t-63 33.5 t-47 39.5t-49 34t-58 14q-29 0 -49 -8t-29.5 -17t-14 -28t-5 -26.5t-0.5 -27.5zM434 557h504l-252 768z" />
<glyph unicode="&#xc4;" horiz-adv-x="1372" d="M92 0l543 1556h102l543 -1556h-160l-141 430h-586l-141 -430h-160zM369 1915q0 47 32.5 80t79.5 33t80 -33t33 -80t-33 -80t-80 -33t-79.5 33t-32.5 80zM434 557h504l-252 768zM778 1915q0 47 33 80t80 33t80 -33t33 -80t-33 -80t-80 -33t-80 33t-33 80z" />
<glyph unicode="&#xc5;" horiz-adv-x="1372" d="M92 0l543 1556h102l543 -1556h-160l-141 430h-586l-141 -430h-160zM434 557h504l-252 768zM483 1868q0 102 53.5 151t149.5 49q95 0 148 -49t53 -151q0 -101 -53.5 -150t-147.5 -49q-96 0 -149.5 49t-53.5 150zM586 1868q0 -53 25 -76t75 -23q48 0 73 23t25 76 q0 55 -25 77.5t-73 22.5q-50 0 -75 -22.5t-25 -77.5z" />
<glyph unicode="&#xc6;" horiz-adv-x="2088" d="M25 0l1007 1536h924v-135h-746v-537h674v-135h-674v-594h746v-135h-891v729h-403l-467 -729h-170zM748 864h317v496z" />
<glyph unicode="&#xc7;" horiz-adv-x="1269" d="M133 768q0 136 18.5 250t62.5 215.5t112 171.5t172.5 110.5t238.5 40.5q239 0 400 -71v-139q-107 43 -196.5 61t-203.5 18q-98 0 -175.5 -33t-129 -91t-85 -142t-48 -180t-14.5 -211t14.5 -211t48 -180t85 -142t129 -91t175.5 -33q114 0 203.5 18t196.5 61v-139 q-150 -66 -375 -71q-57 -81 18 -125q47 -26 65.5 -60.5t9 -67.5t-25.5 -59t-38 -47h-156q29 25 49.5 56t23.5 60.5t-24 45.5q-35 19 -49 45.5t-8.5 55.5t17 53t28.5 47q-119 9 -212 54t-154 115t-100.5 168.5t-56 208t-16.5 238.5z" />
<glyph unicode="&#xc8;" d="M184 0v1536h891v-135h-745v-537h674v-135h-674v-594h745v-135h-891zM303 2048h195l164 -358h-62z" />
<glyph unicode="&#xc9;" d="M184 0v1536h891v-135h-745v-537h674v-135h-674v-594h745v-135h-891zM600 1690l164 358h194l-296 -358h-62z" />
<glyph unicode="&#xca;" d="M184 0v1536h891v-135h-745v-537h674v-135h-674v-594h745v-135h-891zM293 1690l256 358h164l256 -358h-62l-276 237l-277 -237h-61z" />
<glyph unicode="&#xcb;" d="M184 0v1536h891v-135h-745v-537h674v-135h-674v-594h745v-135h-891zM313 1915q0 47 33 80t80 33t80 -33t33 -80t-33 -80t-80 -33t-80 33t-33 80zM723 1915q0 47 33 80t80 33t79.5 -33t32.5 -80t-32.5 -80t-79.5 -33t-80 33t-33 80z" />
<glyph unicode="&#xcc;" horiz-adv-x="604" d="M-25 2048h195l164 -358h-62zM229 0v1536h146v-1536h-146z" />
<glyph unicode="&#xcd;" horiz-adv-x="604" d="M229 0v1536h146v-1536h-146zM272 1690l164 358h195l-297 -358h-62z" />
<glyph unicode="&#xce;" horiz-adv-x="604" d="M-35 1690l256 358h164l256 -358h-61l-277 237l-276 -237h-62zM229 0v1536h146v-1536h-146z" />
<glyph unicode="&#xcf;" horiz-adv-x="604" d="M-14 1915q0 47 32.5 80t79.5 33t80 -33t33 -80t-33 -80t-80 -33t-79.5 33t-32.5 80zM229 0v1536h146v-1536h-146zM395 1915q0 47 33 80t80 33t80 -33t33 -80t-33 -80t-80 -33t-80 33t-33 80z" />
<glyph unicode="&#xd0;" horiz-adv-x="1464" d="M61 739v113h185v684h418q147 0 259.5 -38.5t185.5 -105.5t118.5 -166t64.5 -210t19 -248t-19 -248t-64.5 -210t-118.5 -166t-185.5 -105.5t-259.5 -38.5h-418v739h-185zM391 135h281q108 0 191.5 31t137.5 85t88.5 135t49 174t14.5 208t-14.5 208t-49 174t-88.5 135 t-137.5 85t-191.5 31h-281v-549h369v-113h-369v-604z" />
<glyph unicode="&#xd1;" horiz-adv-x="1433" d="M184 0v1536h105l825 -1245l-4 1245h139v-1536h-104l-826 1245l5 -1245h-140zM346 1772q-7 106 52.5 165.5t170.5 59.5q46 0 84 -14t63 -33.5t47 -39.5t49 -34t58 -14q29 0 49.5 7.5t30.5 17t15 27t5.5 27t0.5 27.5l116 -2q7 -106 -53.5 -165.5t-171.5 -59.5q-46 0 -84 14 t-63 33.5t-47 39.5t-49 34t-58 14q-29 0 -49 -8t-29.5 -17t-14 -28t-5 -26.5t-0.5 -27.5z" />
<glyph unicode="&#xd2;" horiz-adv-x="1454" d="M154 768q0 94 5 170.5t20.5 160.5t41.5 148t70 124.5t103 99.5t143.5 62t189.5 23q106 0 191 -23.5t144 -62t102.5 -99t69.5 -124.5t41 -148t20 -160.5t5 -170.5t-5 -170.5t-20 -160.5t-41 -148t-69.5 -124.5t-102.5 -99t-144 -62t-191 -23.5q-105 0 -189.5 23t-143.5 62 t-103 99.5t-70 124.5t-41.5 148t-20.5 160.5t-5 170.5zM305 768q0 -83 4 -149t15 -136.5t30 -123t51 -101.5t76 -79.5t106 -49t140 -18.5t140 18.5t106 49t76 79.5t51 101.5t30 123t15 136.5t4 149t-4 149t-15 136.5t-30 123t-51 101.5t-76 79.5t-106 49t-140 18.5 t-140 -18.5t-106 -49t-76 -79.5t-51 -101.5t-30 -123t-15 -136.5t-4 -149zM399 2048h195l164 -358h-62z" />
<glyph unicode="&#xd3;" horiz-adv-x="1454" d="M154 768q0 94 5 170.5t20.5 160.5t41.5 148t70 124.5t103 99.5t143.5 62t189.5 23q106 0 191 -23.5t144 -62t102.5 -99t69.5 -124.5t41 -148t20 -160.5t5 -170.5t-5 -170.5t-20 -160.5t-41 -148t-69.5 -124.5t-102.5 -99t-144 -62t-191 -23.5q-105 0 -189.5 23t-143.5 62 t-103 99.5t-70 124.5t-41.5 148t-20.5 160.5t-5 170.5zM305 768q0 -83 4 -149t15 -136.5t30 -123t51 -101.5t76 -79.5t106 -49t140 -18.5t140 18.5t106 49t76 79.5t51 101.5t30 123t15 136.5t4 149t-4 149t-15 136.5t-30 123t-51 101.5t-76 79.5t-106 49t-140 18.5 t-140 -18.5t-106 -49t-76 -79.5t-51 -101.5t-30 -123t-15 -136.5t-4 -149zM696 1690l164 358h195l-297 -358h-62z" />
<glyph unicode="&#xd4;" horiz-adv-x="1454" d="M154 768q0 94 5 170.5t20.5 160.5t41.5 148t70 124.5t103 99.5t143.5 62t189.5 23q106 0 191 -23.5t144 -62t102.5 -99t69.5 -124.5t41 -148t20 -160.5t5 -170.5t-5 -170.5t-20 -160.5t-41 -148t-69.5 -124.5t-102.5 -99t-144 -62t-191 -23.5q-105 0 -189.5 23t-143.5 62 t-103 99.5t-70 124.5t-41.5 148t-20.5 160.5t-5 170.5zM305 768q0 -83 4 -149t15 -136.5t30 -123t51 -101.5t76 -79.5t106 -49t140 -18.5t140 18.5t106 49t76 79.5t51 101.5t30 123t15 136.5t4 149t-4 149t-15 136.5t-30 123t-51 101.5t-76 79.5t-106 49t-140 18.5 t-140 -18.5t-106 -49t-76 -79.5t-51 -101.5t-30 -123t-15 -136.5t-4 -149zM389 1690l256 358h164l256 -358h-61l-277 237l-276 -237h-62z" />
<glyph unicode="&#xd5;" horiz-adv-x="1454" d="M154 768q0 94 5 170.5t20.5 160.5t41.5 148t70 124.5t103 99.5t143.5 62t189.5 23q106 0 191 -23.5t144 -62t102.5 -99t69.5 -124.5t41 -148t20 -160.5t5 -170.5t-5 -170.5t-20 -160.5t-41 -148t-69.5 -124.5t-102.5 -99t-144 -62t-191 -23.5q-105 0 -189.5 23t-143.5 62 t-103 99.5t-70 124.5t-41.5 148t-20.5 160.5t-5 170.5zM305 768q0 -83 4 -149t15 -136.5t30 -123t51 -101.5t76 -79.5t106 -49t140 -18.5t140 18.5t106 49t76 79.5t51 101.5t30 123t15 136.5t4 149t-4 149t-15 136.5t-30 123t-51 101.5t-76 79.5t-106 49t-140 18.5 t-140 -18.5t-106 -49t-76 -79.5t-51 -101.5t-30 -123t-15 -136.5t-4 -149zM356 1772q-7 106 53 165.5t171 59.5q46 0 84 -14t63 -33.5t47 -39.5t49 -34t58 -14q29 0 49.5 8t30 17t14.5 26.5t5.5 27t0.5 27.5l117 -2q7 -106 -54 -165.5t-172 -59.5q-46 0 -84 14t-63 33.5 t-47 39.5t-49 34t-58 14q-29 0 -49 -8t-29.5 -17t-14 -28t-5 -26.5t-0.5 -27.5z" />
<glyph unicode="&#xd6;" horiz-adv-x="1454" d="M154 768q0 94 5 170.5t20.5 160.5t41.5 148t70 124.5t103 99.5t143.5 62t189.5 23q106 0 191 -23.5t144 -62t102.5 -99t69.5 -124.5t41 -148t20 -160.5t5 -170.5t-5 -170.5t-20 -160.5t-41 -148t-69.5 -124.5t-102.5 -99t-144 -62t-191 -23.5q-105 0 -189.5 23t-143.5 62 t-103 99.5t-70 124.5t-41.5 148t-20.5 160.5t-5 170.5zM305 768q0 -83 4 -149t15 -136.5t30 -123t51 -101.5t76 -79.5t106 -49t140 -18.5t140 18.5t106 49t76 79.5t51 101.5t30 123t15 136.5t4 149t-4 149t-15 136.5t-30 123t-51 101.5t-76 79.5t-106 49t-140 18.5 t-140 -18.5t-106 -49t-76 -79.5t-51 -101.5t-30 -123t-15 -136.5t-4 -149zM410 1915q0 47 32.5 80t79.5 33t80 -33t33 -80t-33 -80t-80 -33t-79.5 33t-32.5 80zM819 1915q0 47 33 80t80 33t79.5 -33t32.5 -80t-32.5 -80t-79.5 -33t-80 33t-33 80z" />
<glyph unicode="&#xd7;" horiz-adv-x="1064" d="M195 457l241 241l-241 242l96 96l241 -241l242 241l96 -96l-241 -242l241 -241l-96 -97l-242 242l-241 -242z" />
<glyph unicode="&#xd8;" horiz-adv-x="1413" d="M154 768q0 94 5 170.5t20.5 160.5t41.5 148t70 124.5t103 99.5t143.5 62t189.5 23q221 0 354 -100l49 80h130l-99 -160q81 -105 110 -256t29 -352q0 -94 -5 -170.5t-20 -160.5t-41 -148t-69.5 -124.5t-102.5 -99t-144 -62t-191 -23.5q-221 0 -354 100l-49 -80h-129 l98 160q-81 105 -110 256t-29 352zM305 768q0 -320 74 -467l627 1028q-99 96 -279 96q-78 0 -140 -18.5t-106 -49t-76 -79.5t-51 -101.5t-30 -123t-15 -136.5t-4 -149zM449 205q97 -94 278 -94q78 0 140 18.5t106 49t76 79.5t51 101.5t30 123t15 136.5t4 149q0 316 -74 465z " />
<glyph unicode="&#xd9;" horiz-adv-x="1433" d="M174 481v1055h145v-1028q0 -395 398 -395q397 0 397 395v1028h146v-1055q0 -90 -21 -164.5t-54.5 -125.5t-80.5 -90t-95.5 -61.5t-104 -36.5t-99.5 -18.5t-88 -4.5t-88 4.5t-99.5 18.5t-104 36.5t-95.5 61.5t-80.5 90t-54.5 125.5t-21 164.5zM389 2048h195l164 -358h-62z " />
<glyph unicode="&#xda;" horiz-adv-x="1433" d="M174 481v1055h145v-1028q0 -395 398 -395q397 0 397 395v1028h146v-1055q0 -90 -21 -164.5t-54.5 -125.5t-80.5 -90t-95.5 -61.5t-104 -36.5t-99.5 -18.5t-88 -4.5t-88 4.5t-99.5 18.5t-104 36.5t-95.5 61.5t-80.5 90t-54.5 125.5t-21 164.5zM686 1690l164 358h194 l-296 -358h-62z" />
<glyph unicode="&#xdb;" horiz-adv-x="1433" d="M174 481v1055h145v-1028q0 -395 398 -395q397 0 397 395v1028h146v-1055q0 -90 -21 -164.5t-54.5 -125.5t-80.5 -90t-95.5 -61.5t-104 -36.5t-99.5 -18.5t-88 -4.5t-88 4.5t-99.5 18.5t-104 36.5t-95.5 61.5t-80.5 90t-54.5 125.5t-21 164.5zM379 1690l256 358h164 l256 -358h-62l-276 237l-277 -237h-61z" />
<glyph unicode="&#xdc;" horiz-adv-x="1433" d="M174 481v1055h145v-1028q0 -395 398 -395q397 0 397 395v1028h146v-1055q0 -90 -21 -164.5t-54.5 -125.5t-80.5 -90t-95.5 -61.5t-104 -36.5t-99.5 -18.5t-88 -4.5t-88 4.5t-99.5 18.5t-104 36.5t-95.5 61.5t-80.5 90t-54.5 125.5t-21 164.5zM399 1915q0 47 33 80t80 33 t80 -33t33 -80t-33 -80t-80 -33t-80 33t-33 80zM809 1915q0 47 33 80t80 33t79.5 -33t32.5 -80t-32.5 -80t-79.5 -33t-80 33t-33 80z" />
<glyph unicode="&#xdd;" horiz-adv-x="1433" d="M92 1536h176l449 -772l448 772h176l-553 -901v-635h-143v635zM688 1690l164 358h195l-297 -358h-62z" />
<glyph unicode="&#xde;" d="M164 0v1536h145v-307h324q112 0 200.5 -25t146.5 -68t96 -102.5t54.5 -125t16.5 -140.5t-16.5 -140.5t-54.5 -125t-96 -102.5t-146.5 -68t-200.5 -25h-324v-307h-145zM309 442h332q83 0 146.5 20.5t100 51.5t59.5 76t30.5 87t7.5 91t-7.5 91t-30.5 87t-59.5 76t-100 51.5 t-146.5 20.5h-332v-652z" />
<glyph unicode="&#xdf;" horiz-adv-x="1392" d="M203 0v1217q-2 153 112 246t338 93q225 0 340 -93t113 -246q-2 -132 -60 -204.5t-204 -109.5q-99 -26 -137.5 -59t-38.5 -103t49 -104t184 -49q143 -16 223 -54.5t109 -94t29 -144.5q0 -63 -21.5 -116.5t-67 -99.5t-128.5 -72.5t-195 -26.5q-73 0 -164 15.5t-141 35.5 v123q131 -48 307 -48q147 0 208.5 52t61.5 135q0 39 -8 65.5t-31 51t-70.5 39t-121.5 20.5q-108 10 -181 33.5t-110.5 60.5t-52.5 79t-15 99q0 118 59 179.5t222 101.5q51 13 83.5 33t47.5 48t20 53.5t5 62.5q0 94 -80.5 152.5t-233.5 58.5t-233 -58.5t-80 -152.5v-1219 h-137z" />
<glyph unicode="&#xe0;" horiz-adv-x="1075" d="M133 309q0 50 8.5 90t32 81t63 69.5t104.5 50t153 29.5l274 16v57q0 116 -52.5 166t-191.5 50q-153 0 -307 -52v123q127 55 307 55q112 0 189.5 -24t119.5 -71.5t60 -107.5t18 -141v-700h-80l-30 82q-138 -102 -305 -102q-97 0 -169 26.5t-113.5 74t-61 104.5t-19.5 124z M197 1536h194l164 -358h-61zM279 309q0 -40 7.5 -71.5t29 -63.5t68.5 -50t116 -18q77 0 135.5 19.5t132.5 62.5v357l-285 -27q-63 -6 -105 -25t-62.5 -49.5t-28.5 -62t-8 -72.5z" />
<glyph unicode="&#xe1;" horiz-adv-x="1075" d="M133 309q0 50 8.5 90t32 81t63 69.5t104.5 50t153 29.5l274 16v57q0 116 -52.5 166t-191.5 50q-153 0 -307 -52v123q127 55 307 55q112 0 189.5 -24t119.5 -71.5t60 -107.5t18 -141v-700h-80l-30 82q-138 -102 -305 -102q-97 0 -169 26.5t-113.5 74t-61 104.5t-19.5 124z M279 309q0 -40 7.5 -71.5t29 -63.5t68.5 -50t116 -18q77 0 135.5 19.5t132.5 62.5v357l-285 -27q-63 -6 -105 -25t-62.5 -49.5t-28.5 -62t-8 -72.5zM494 1178l163 358h195l-297 -358h-61z" />
<glyph unicode="&#xe2;" horiz-adv-x="1075" d="M133 309q0 50 8.5 90t32 81t63 69.5t104.5 50t153 29.5l274 16v57q0 116 -52.5 166t-191.5 50q-153 0 -307 -52v123q127 55 307 55q112 0 189.5 -24t119.5 -71.5t60 -107.5t18 -141v-700h-80l-30 82q-138 -102 -305 -102q-97 0 -169 26.5t-113.5 74t-61 104.5t-19.5 124z M186 1178l256 358h164l256 -358h-61l-277 237l-276 -237h-62zM279 309q0 -40 7.5 -71.5t29 -63.5t68.5 -50t116 -18q77 0 135.5 19.5t132.5 62.5v357l-285 -27q-63 -6 -105 -25t-62.5 -49.5t-28.5 -62t-8 -72.5z" />
<glyph unicode="&#xe3;" horiz-adv-x="1075" d="M133 309q0 50 8.5 90t32 81t63 69.5t104.5 50t153 29.5l274 16v57q0 116 -52.5 166t-191.5 50q-153 0 -307 -52v123q127 55 307 55q112 0 189.5 -24t119.5 -71.5t60 -107.5t18 -141v-700h-80l-30 82q-138 -102 -305 -102q-97 0 -169 26.5t-113.5 74t-61 104.5t-19.5 124z M166 1260q-7 106 52.5 165.5t170.5 59.5q46 0 84 -14t63 -33.5t47 -39.5t49 -34t58 -14q29 0 49.5 7.5t30.5 17t15 27t5.5 27t0.5 27.5l116 -2q7 -106 -53.5 -165.5t-171.5 -59.5q-46 0 -84 14t-63 33.5t-47 39.5t-49 34t-58 14q-29 0 -49 -8t-29.5 -17t-14 -28t-5 -26.5 t-0.5 -27.5zM279 309q0 -40 7.5 -71.5t29 -63.5t68.5 -50t116 -18q77 0 135.5 19.5t132.5 62.5v357l-285 -27q-63 -6 -105 -25t-62.5 -49.5t-28.5 -62t-8 -72.5z" />
<glyph unicode="&#xe4;" horiz-adv-x="1075" d="M133 309q0 50 8.5 90t32 81t63 69.5t104.5 50t153 29.5l274 16v57q0 116 -52.5 166t-191.5 50q-153 0 -307 -52v123q127 55 307 55q112 0 189.5 -24t119.5 -71.5t60 -107.5t18 -141v-700h-80l-30 82q-138 -102 -305 -102q-97 0 -169 26.5t-113.5 74t-61 104.5t-19.5 124z M207 1403q0 47 32.5 80t79.5 33t80 -33t33 -80t-33 -80t-80 -33t-79.5 33t-32.5 80zM279 309q0 -40 7.5 -71.5t29 -63.5t68.5 -50t116 -18q77 0 135.5 19.5t132.5 62.5v357l-285 -27q-63 -6 -105 -25t-62.5 -49.5t-28.5 -62t-8 -72.5zM616 1403q0 47 33 80t80 33t80 -33 t33 -80t-33 -80t-80 -33t-80 33t-33 80z" />
<glyph unicode="&#xe5;" horiz-adv-x="1075" d="M133 309q0 50 8.5 90t32 81t63 69.5t104.5 50t153 29.5l274 16v57q0 116 -52.5 166t-191.5 50q-153 0 -307 -52v123q127 55 307 55q112 0 189.5 -24t119.5 -71.5t60 -107.5t18 -141v-700h-80l-30 82q-138 -102 -305 -102q-97 0 -169 26.5t-113.5 74t-61 104.5t-19.5 124z M279 309q0 -40 7.5 -71.5t29 -63.5t68.5 -50t116 -18q77 0 135.5 19.5t132.5 62.5v357l-285 -27q-63 -6 -105 -25t-62.5 -49.5t-28.5 -62t-8 -72.5zM322 1356q0 102 53 151t149 49q95 0 148 -49t53 -151q0 -101 -53.5 -150t-147.5 -49q-96 0 -149 49t-53 150zM424 1356 q0 -53 25 -76t75 -23q48 0 73.5 23t25.5 76q0 54 -25 77t-74 23q-50 0 -75 -22.5t-25 -77.5z" />
<glyph unicode="&#xe6;" horiz-adv-x="1771" d="M133 289q0 64 17 112.5t57.5 89.5t116.5 62.5t186 21.5h299v127q0 114 -61 165t-207 51q-170 0 -324 -52v123q127 55 324 55q274 0 362 -141q106 141 336 141q85 0 149.5 -18t106.5 -55t69 -81.5t40.5 -109.5t18.5 -125.5t5 -142.5v-53h-676v-13q3 -58 11 -104t27.5 -92 t50 -76t81 -49t117.5 -19q111 0 187 13t151 45v-123q-138 -61 -338 -61q-227 0 -334 139l-63 -49q-122 -90 -322 -90q-197 0 -292 84.5t-95 224.5zM279 289q0 -39 10.5 -69t36 -57t76 -42t122.5 -15q84 0 162 26t127 67l35 30q-33 97 -39 228v2h-309q-123 0 -172 -44 t-49 -126zM952 575h533q-1 44 -2.5 75t-7 69.5t-16 65t-28.5 53.5t-43.5 43t-63 26.5t-85.5 10.5q-68 0 -118.5 -19t-81 -49.5t-50 -77.5t-27 -92.5t-10.5 -104.5z" />
<glyph unicode="&#xe7;" horiz-adv-x="1003" d="M143 512q0 94 11.5 169.5t41 145t77.5 116t124.5 74t177.5 27.5q188 0 306 -51v-123q-142 48 -308 48q-54 0 -97 -12t-72.5 -32.5t-51 -52t-34 -64t-20 -76.5t-9.5 -82t-2 -87t2 -87t9.5 -82t20 -76.5t34 -64t51 -52t72.5 -32.5t97 -12q166 0 308 48v-123 q-114 -47 -281 -51q-57 -81 18 -125q47 -26 65.5 -60.5t9 -67.5t-25.5 -59t-38 -47h-156q29 25 49.5 56t23.5 60.5t-24 45.5q-35 19 -49 45.5t-8.5 55.5t17 53t28.5 47q-106 10 -180 54t-114 118t-56.5 159.5t-16.5 196.5z" />
<glyph unicode="&#xe8;" horiz-adv-x="1105" d="M143 512q0 94 11.5 169.5t40.5 145t76.5 116t124 74t177.5 27.5q73 0 131 -14.5t98.5 -39t70 -63.5t46.5 -81t27 -100t13.5 -111t3.5 -123v-66h-676q3 -59 10.5 -104.5t27 -91.5t50 -76t81 -49t117.5 -19q111 0 187 13t151 45v-123q-138 -61 -338 -61q-101 0 -177.5 27.5 t-124 74t-76.5 116t-40.5 145t-11.5 169.5zM246 1536h194l164 -358h-61zM287 563h532q0 41 -1 68t-4 63.5t-10.5 61t-19 52.5t-30 46t-43.5 33.5t-60 23t-78 7.5q-69 0 -120.5 -20t-81.5 -51.5t-49 -80t-26 -95.5t-9 -108z" />
<glyph unicode="&#xe9;" horiz-adv-x="1105" d="M143 512q0 94 11.5 169.5t40.5 145t76.5 116t124 74t177.5 27.5q73 0 131 -14.5t98.5 -39t70 -63.5t46.5 -81t27 -100t13.5 -111t3.5 -123v-66h-676q3 -59 10.5 -104.5t27 -91.5t50 -76t81 -49t117.5 -19q111 0 187 13t151 45v-123q-138 -61 -338 -61q-101 0 -177.5 27.5 t-124 74t-76.5 116t-40.5 145t-11.5 169.5zM287 563h532q0 41 -1 68t-4 63.5t-10.5 61t-19 52.5t-30 46t-43.5 33.5t-60 23t-78 7.5q-69 0 -120.5 -20t-81.5 -51.5t-49 -80t-26 -95.5t-9 -108zM543 1178l164 358h194l-297 -358h-61z" />
<glyph unicode="&#xea;" horiz-adv-x="1105" d="M143 512q0 94 11.5 169.5t40.5 145t76.5 116t124 74t177.5 27.5q73 0 131 -14.5t98.5 -39t70 -63.5t46.5 -81t27 -100t13.5 -111t3.5 -123v-66h-676q3 -59 10.5 -104.5t27 -91.5t50 -76t81 -49t117.5 -19q111 0 187 13t151 45v-123q-138 -61 -338 -61q-101 0 -177.5 27.5 t-124 74t-76.5 116t-40.5 145t-11.5 169.5zM236 1178l256 358h163l256 -358h-61l-277 237l-276 -237h-61zM287 563h532q0 41 -1 68t-4 63.5t-10.5 61t-19 52.5t-30 46t-43.5 33.5t-60 23t-78 7.5q-69 0 -120.5 -20t-81.5 -51.5t-49 -80t-26 -95.5t-9 -108z" />
<glyph unicode="&#xeb;" horiz-adv-x="1105" d="M143 512q0 94 11.5 169.5t40.5 145t76.5 116t124 74t177.5 27.5q73 0 131 -14.5t98.5 -39t70 -63.5t46.5 -81t27 -100t13.5 -111t3.5 -123v-66h-676q3 -59 10.5 -104.5t27 -91.5t50 -76t81 -49t117.5 -19q111 0 187 13t151 45v-123q-138 -61 -338 -61q-101 0 -177.5 27.5 t-124 74t-76.5 116t-40.5 145t-11.5 169.5zM256 1403q0 47 33 80t80 33t79.5 -33t32.5 -80t-32.5 -80t-79.5 -33t-80 33t-33 80zM287 563h532q0 41 -1 68t-4 63.5t-10.5 61t-19 52.5t-30 46t-43.5 33.5t-60 23t-78 7.5q-69 0 -120.5 -20t-81.5 -51.5t-49 -80t-26 -95.5 t-9 -108zM666 1403q0 47 32.5 80t79.5 33t80 -33t33 -80t-33 -80t-80 -33t-79.5 33t-32.5 80z" />
<glyph unicode="&#xec;" horiz-adv-x="552" d="M-61 1536h194l164 -358h-61zM197 205v819h139v-836q0 -53 19 -72.5t67 -19.5v-116q-114 0 -169.5 52.5t-55.5 172.5z" />
<glyph unicode="&#xed;" horiz-adv-x="552" d="M197 205v819h139v-836q0 -53 19 -72.5t67 -19.5v-116q-114 0 -169.5 52.5t-55.5 172.5zM236 1178l163 358h195l-297 -358h-61z" />
<glyph unicode="&#xee;" horiz-adv-x="552" d="M-72 1178l256 358h164l256 -358h-61l-277 237l-276 -237h-62zM197 205v819h139v-836q0 -53 19 -72.5t67 -19.5v-116q-114 0 -169.5 52.5t-55.5 172.5z" />
<glyph unicode="&#xef;" horiz-adv-x="552" d="M-51 1403q0 47 32.5 80t79.5 33t80 -33t33 -80t-33 -80t-80 -33t-79.5 33t-32.5 80zM197 205v819h139v-836q0 -53 19 -72.5t67 -19.5v-116q-114 0 -169.5 52.5t-55.5 172.5zM358 1403q0 47 33 80t80 33t80 -33t33 -80t-33 -80t-80 -33t-80 33t-33 80z" />
<glyph unicode="&#xf0;" horiz-adv-x="1126" d="M113 512q0 98 13 176t45 146t82.5 113.5t128.5 71t181 25.5q119 0 217 -53q-62 149 -190 281l-314 -160v121l230 117q-110 94 -277 186h234q105 -66 168 -123l239 123v-121l-157 -80q289 -314 301 -823q0 -98 -13 -176t-44.5 -146t-82.5 -113.5t-129.5 -71t-181.5 -25.5 t-181 25.5t-128.5 71t-82.5 113.5t-45 146t-13 176zM256 512q0 -77 6 -132t24.5 -110t51.5 -88.5t89.5 -54.5t135.5 -21q78 0 134 21t89 55t52.5 88.5t25.5 110t6 131.5t-6 131.5t-25.5 110t-52.5 88.5t-89 55t-134 21q-79 0 -135.5 -21t-89.5 -54.5t-51.5 -88.5t-24.5 -110 t-6 -132z" />
<glyph unicode="&#xf1;" horiz-adv-x="1085" d="M164 0v1024h80l30 -86q141 106 310 106q348 0 348 -307v-737h-144v743q0 95 -51.5 135t-152.5 40q-94 0 -155 -15.5t-122 -50.5v-852h-143zM203 1260q-7 106 52.5 165.5t170.5 59.5q46 0 84 -14t63 -33.5t47 -39.5t49 -34t58 -14q29 0 49.5 8t30 17t14.5 26.5t5.5 27 t0.5 27.5l117 -2q7 -106 -53.5 -165.5t-171.5 -59.5q-46 0 -84 14t-63 33.5t-47 39.5t-49 34t-58 14q-21 0 -37.5 -4t-27 -9.5t-17.5 -16.5t-10.5 -17.5t-5 -21t-1.5 -19.5v-19z" />
<glyph unicode="&#xf2;" horiz-adv-x="1146" d="M143 512q0 100 11 176.5t40 145.5t76.5 113.5t123.5 70.5t179 26t179.5 -26t124.5 -70.5t76.5 -113.5t39.5 -145.5t11 -176.5t-11 -176.5t-39.5 -145.5t-76.5 -113.5t-124.5 -70.5t-179.5 -26t-179 26t-123.5 70.5t-76.5 113.5t-40 145.5t-11 176.5zM246 1536h194 l164 -358h-61zM287 512q0 -57 1.5 -95.5t8 -85t18 -76.5t32.5 -61t51 -48.5t74 -28.5t101 -11q65 0 113.5 13t79.5 41.5t50.5 61t28.5 83.5t12 96t3 111t-3 111t-12 96t-28.5 83.5t-50.5 61t-79.5 41.5t-113.5 13q-57 0 -101 -11t-74 -28.5t-51 -48.5t-32.5 -61t-18 -76.5 t-8 -85t-1.5 -95.5z" />
<glyph unicode="&#xf3;" horiz-adv-x="1146" d="M143 512q0 100 11 176.5t40 145.5t76.5 113.5t123.5 70.5t179 26t179.5 -26t124.5 -70.5t76.5 -113.5t39.5 -145.5t11 -176.5t-11 -176.5t-39.5 -145.5t-76.5 -113.5t-124.5 -70.5t-179.5 -26t-179 26t-123.5 70.5t-76.5 113.5t-40 145.5t-11 176.5zM287 512 q0 -57 1.5 -95.5t8 -85t18 -76.5t32.5 -61t51 -48.5t74 -28.5t101 -11q65 0 113.5 13t79.5 41.5t50.5 61t28.5 83.5t12 96t3 111t-3 111t-12 96t-28.5 83.5t-50.5 61t-79.5 41.5t-113.5 13q-57 0 -101 -11t-74 -28.5t-51 -48.5t-32.5 -61t-18 -76.5t-8 -85t-1.5 -95.5z M543 1178l164 358h194l-297 -358h-61z" />
<glyph unicode="&#xf4;" horiz-adv-x="1146" d="M143 512q0 100 11 176.5t40 145.5t76.5 113.5t123.5 70.5t179 26t179.5 -26t124.5 -70.5t76.5 -113.5t39.5 -145.5t11 -176.5t-11 -176.5t-39.5 -145.5t-76.5 -113.5t-124.5 -70.5t-179.5 -26t-179 26t-123.5 70.5t-76.5 113.5t-40 145.5t-11 176.5zM236 1178l256 358 h163l256 -358h-61l-277 237l-276 -237h-61zM287 512q0 -57 1.5 -95.5t8 -85t18 -76.5t32.5 -61t51 -48.5t74 -28.5t101 -11q65 0 113.5 13t79.5 41.5t50.5 61t28.5 83.5t12 96t3 111t-3 111t-12 96t-28.5 83.5t-50.5 61t-79.5 41.5t-113.5 13q-57 0 -101 -11t-74 -28.5 t-51 -48.5t-32.5 -61t-18 -76.5t-8 -85t-1.5 -95.5z" />
<glyph unicode="&#xf5;" horiz-adv-x="1146" d="M143 512q0 100 11 176.5t40 145.5t76.5 113.5t123.5 70.5t179 26t179.5 -26t124.5 -70.5t76.5 -113.5t39.5 -145.5t11 -176.5t-11 -176.5t-39.5 -145.5t-76.5 -113.5t-124.5 -70.5t-179.5 -26t-179 26t-123.5 70.5t-76.5 113.5t-40 145.5t-11 176.5zM203 1260 q-7 106 52.5 165.5t170.5 59.5q46 0 84 -14t63 -33.5t47 -39.5t49 -34t58 -14q29 0 49.5 8t30 17t14.5 26.5t5.5 27t0.5 27.5l117 -2q7 -106 -53.5 -165.5t-171.5 -59.5q-46 0 -84 14t-63 33.5t-47 39.5t-49 34t-58 14q-21 0 -37.5 -4t-27 -9.5t-17.5 -16.5t-10.5 -17.5 t-5 -21t-1.5 -19.5v-19zM287 512q0 -57 1.5 -95.5t8 -85t18 -76.5t32.5 -61t51 -48.5t74 -28.5t101 -11q65 0 113.5 13t79.5 41.5t50.5 61t28.5 83.5t12 96t3 111t-3 111t-12 96t-28.5 83.5t-50.5 61t-79.5 41.5t-113.5 13q-57 0 -101 -11t-74 -28.5t-51 -48.5t-32.5 -61 t-18 -76.5t-8 -85t-1.5 -95.5z" />
<glyph unicode="&#xf6;" horiz-adv-x="1146" d="M143 512q0 100 11 176.5t40 145.5t76.5 113.5t123.5 70.5t179 26t179.5 -26t124.5 -70.5t76.5 -113.5t39.5 -145.5t11 -176.5t-11 -176.5t-39.5 -145.5t-76.5 -113.5t-124.5 -70.5t-179.5 -26t-179 26t-123.5 70.5t-76.5 113.5t-40 145.5t-11 176.5zM256 1403q0 47 33 80 t80 33t79.5 -33t32.5 -80t-32.5 -80t-79.5 -33t-80 33t-33 80zM287 512q0 -57 1.5 -95.5t8 -85t18 -76.5t32.5 -61t51 -48.5t74 -28.5t101 -11q65 0 113.5 13t79.5 41.5t50.5 61t28.5 83.5t12 96t3 111t-3 111t-12 96t-28.5 83.5t-50.5 61t-79.5 41.5t-113.5 13 q-57 0 -101 -11t-74 -28.5t-51 -48.5t-32.5 -61t-18 -76.5t-8 -85t-1.5 -95.5zM666 1403q0 47 32.5 80t79.5 33t80 -33t33 -80t-33 -80t-80 -33t-79.5 33t-32.5 80z" />
<glyph unicode="&#xf7;" horiz-adv-x="1064" d="M123 631v135h819v-135h-819zM420 381q0 47 32.5 80t79.5 33t80 -33t33 -80t-33 -80t-80 -33t-79.5 33t-32.5 80zM420 1016q0 47 32.5 79.5t79.5 32.5t80 -32.5t33 -79.5t-33 -80t-80 -33t-79.5 33t-32.5 80z" />
<glyph unicode="&#xf8;" horiz-adv-x="1146" d="M143 512q0 100 11 176.5t40 145.5t76.5 113.5t123.5 70.5t179 26q157 0 256 -61l27 41h127l-76 -113q97 -123 97 -399q0 -100 -11 -176.5t-39.5 -145.5t-76.5 -113.5t-124.5 -70.5t-179.5 -26q-164 0 -256 59l-26 -39h-127l76 111q-97 123 -97 401zM287 512 q0 -102 6.5 -166t28.5 -113l432 639q-68 46 -181 46q-57 0 -101 -11t-74 -28.5t-51 -48.5t-32.5 -61t-18 -76.5t-8 -85t-1.5 -95.5zM391 150q65 -44 182 -44q65 0 113.5 13t79.5 41.5t50.5 61t28.5 83.5t12 96t3 111q0 195 -37 276z" />
<glyph unicode="&#xf9;" horiz-adv-x="1085" d="M154 287v737h143v-750q0 -95 52 -134.5t153 -39.5q94 0 154 15.5t122 50.5v858h144v-1024h-80l-31 86q-141 -106 -309 -106q-348 0 -348 307zM211 1536h195l163 -358h-61z" />
<glyph unicode="&#xfa;" horiz-adv-x="1085" d="M154 287v737h143v-750q0 -95 52 -134.5t153 -39.5q94 0 154 15.5t122 50.5v858h144v-1024h-80l-31 86q-141 -106 -309 -106q-348 0 -348 307zM508 1178l164 358h194l-297 -358h-61z" />
<glyph unicode="&#xfb;" horiz-adv-x="1085" d="M154 287v737h143v-750q0 -95 52 -134.5t153 -39.5q94 0 154 15.5t122 50.5v858h144v-1024h-80l-31 86q-141 -106 -309 -106q-348 0 -348 307zM201 1178l256 358h164l256 -358h-62l-276 237l-277 -237h-61z" />
<glyph unicode="&#xfc;" horiz-adv-x="1085" d="M154 287v737h143v-750q0 -95 52 -134.5t153 -39.5q94 0 154 15.5t122 50.5v858h144v-1024h-80l-31 86q-141 -106 -309 -106q-348 0 -348 307zM221 1403q0 47 33 80t80 33t79.5 -33t32.5 -80t-32.5 -80t-79.5 -33t-80 33t-33 80zM631 1403q0 47 32.5 80t79.5 33t80 -33 t33 -80t-33 -80t-80 -33t-79.5 33t-32.5 80z" />
<glyph unicode="&#xfd;" horiz-adv-x="1044" d="M72 1024h164l286 -840l287 840h164l-590 -1536h-154l232 539zM492 1178l163 358h195l-297 -358h-61z" />
<glyph unicode="&#xfe;" horiz-adv-x="1157" d="M164 -512v2048h143v-575q128 83 287 83q96 0 170 -27.5t120.5 -74.5t76 -116t41.5 -145t12 -169t-12 -169t-41.5 -145t-76 -116t-120.5 -74.5t-170 -27.5q-145 0 -287 83v-575h-143zM307 172q64 -34 128 -50t159 -16q51 0 92.5 12t70 32.5t49.5 52t33 64.5t19 76.5 t9.5 82t2.5 86.5t-2.5 86.5t-9.5 82t-19 76.5t-33 64.5t-49.5 52t-70 32.5t-92.5 12q-106 0 -176 -21q-64 -21 -111 -45v-680z" />
<glyph unicode="&#xff;" horiz-adv-x="1044" d="M72 1024h164l286 -840l287 840h164l-590 -1536h-154l232 539zM205 1403q0 47 32.5 80t79.5 33t80 -33t33 -80t-33 -80t-80 -33t-79.5 33t-32.5 80zM614 1403q0 47 33 80t80 33t80 -33t33 -80t-33 -80t-80 -33t-80 33t-33 80z" />
<glyph unicode="&#x152;" horiz-adv-x="1843" d="M133 768q0 137 19 248t64.5 210t118.5 166t185.5 105.5t259.5 38.5h930v-135h-666v-537h594v-135h-594v-594h666v-135h-930q-147 0 -259.5 38.5t-185.5 105.5t-118.5 166t-64.5 210t-19 248zM291 768q0 -115 14.5 -208t49 -174t88.5 -135t137.5 -85t191.5 -31h127v1266 h-127q-108 0 -191.5 -31t-137.5 -85t-88.5 -135t-49 -174t-14.5 -208z" />
<glyph unicode="&#x153;" horiz-adv-x="1822" d="M143 512q0 100 11 176.5t40 145.5t76.5 113.5t123.5 70.5t179 26q265 0 361 -172q102 172 356 172q85 0 149.5 -18t106.5 -55t69 -81.5t40.5 -109.5t18.5 -125.5t5 -142.5v-66h-675q3 -59 10.5 -104.5t27 -91.5t50 -76t81 -49t117.5 -19q111 0 187 13t151 45v-123 q-138 -61 -338 -61q-254 0 -356 172q-96 -172 -361 -172q-103 0 -179 26t-123.5 70.5t-76.5 113.5t-40 145.5t-11 176.5zM287 512q0 -57 1.5 -95.5t8 -85t18 -76.5t32.5 -61t51 -48.5t74 -28.5t101 -11q65 0 113.5 13t79.5 41.5t50.5 61t28.5 83.5t12 96t3 111t-3 111 t-12 96t-28.5 83.5t-50.5 61t-79.5 41.5t-113.5 13q-57 0 -101 -11t-74 -28.5t-51 -48.5t-32.5 -61t-18 -76.5t-8 -85t-1.5 -95.5zM1004 563h532q0 41 -1 68t-4 63.5t-10.5 61t-19 52.5t-30 46t-43.5 33.5t-60 23t-78 7.5q-69 0 -120.5 -20t-81.5 -51.5t-49 -80t-26 -95.5 t-9 -108z" />
<glyph unicode="&#x178;" horiz-adv-x="1433" d="M92 1536h176l449 -772l448 772h176l-553 -901v-635h-143v635zM401 1915q0 47 33 80t80 33t80 -33t33 -80t-33 -80t-80 -33t-80 33t-33 80zM811 1915q0 47 33 80t80 33t79.5 -33t32.5 -80t-32.5 -80t-79.5 -33t-80 33t-33 80z" />
<glyph unicode="&#x2c6;" horiz-adv-x="1105" d="M236 1178l256 358h163l256 -358h-61l-277 237l-276 -237h-61z" />
<glyph unicode="&#x2dc;" horiz-adv-x="1232" d="M203 1260q-7 106 52.5 165.5t170.5 59.5q46 0 84 -14t63 -33.5t47 -39.5t49 -34t58 -14q29 0 49.5 8t30 17t14.5 26.5t5.5 27t0.5 27.5l117 -2q7 -106 -53.5 -165.5t-171.5 -59.5q-46 0 -84 14t-63 33.5t-47 39.5t-49 34t-58 14q-21 0 -37.5 -4t-27 -9.5t-17.5 -16.5 t-10.5 -17.5t-5 -21t-1.5 -19.5v-19z" />
<glyph unicode="&#x2000;" horiz-adv-x="1034" />
<glyph unicode="&#x2001;" horiz-adv-x="2068" />
<glyph unicode="&#x2002;" horiz-adv-x="1034" />
<glyph unicode="&#x2003;" horiz-adv-x="2068" />
<glyph unicode="&#x2004;" horiz-adv-x="689" />
<glyph unicode="&#x2005;" horiz-adv-x="517" />
<glyph unicode="&#x2006;" horiz-adv-x="344" />
<glyph unicode="&#x2007;" horiz-adv-x="344" />
<glyph unicode="&#x2008;" horiz-adv-x="258" />
<glyph unicode="&#x2009;" horiz-adv-x="413" />
<glyph unicode="&#x200a;" horiz-adv-x="114" />
<glyph unicode="&#x2010;" horiz-adv-x="757" d="M123 631v135h512v-135h-512z" />
<glyph unicode="&#x2011;" horiz-adv-x="757" d="M123 631v135h512v-135h-512z" />
<glyph unicode="&#x2012;" horiz-adv-x="757" d="M123 631v135h512v-135h-512z" />
<glyph unicode="&#x2013;" horiz-adv-x="1024" d="M123 631v135h778v-135h-778z" />
<glyph unicode="&#x2014;" horiz-adv-x="2048" d="M123 631v135h1802v-135h-1802z" />
<glyph unicode="&#x2018;" horiz-adv-x="327" d="M16 1024q2 89 23 174.5t49.5 143.5t56 104t47.5 68l19 22h49q-2 -4 -5.5 -12t-13 -35.5t-17.5 -57.5t-16.5 -76.5t-13 -94.5t-3 -110.5t9.5 -125.5h-185z" />
<glyph unicode="&#x2019;" horiz-adv-x="327" d="M68 1024q2 4 5.5 12t13 35.5t17.5 57.5t16.5 76.5t13 94.5t3 110.5t-9.5 125.5h184q-2 -89 -23 -174.5t-49 -143.5t-56 -104t-47 -68l-19 -22h-49z" />
<glyph unicode="&#x201a;" horiz-adv-x="327" d="M68 -328q2 4 5.5 12t13 35.5t17.5 57.5t16.5 76.5t13 94.5t3 110.5t-9.5 125.5h184q-2 -89 -23 -174.5t-49 -143.5t-56 -104t-47 -68l-19 -22h-49z" />
<glyph unicode="&#x201c;" horiz-adv-x="634" d="M16 1024q2 89 23 174.5t49.5 143.5t56 104t47.5 68l19 22h49q-2 -4 -5.5 -12t-13 -35.5t-17.5 -57.5t-16.5 -76.5t-13 -94.5t-3 -110.5t9.5 -125.5h-185zM324 1024q2 89 23 174.5t49 143.5t56 104t47 68l19 22h49q-2 -4 -5.5 -12t-13 -35.5t-17.5 -57.5t-16.5 -76.5 t-13 -94.5t-3 -110.5t9.5 -125.5h-184z" />
<glyph unicode="&#x201d;" horiz-adv-x="634" d="M68 1024q2 4 5.5 12t13 35.5t17.5 57.5t16.5 76.5t13 94.5t3 110.5t-9.5 125.5h184q-2 -89 -23 -174.5t-49 -143.5t-56 -104t-47 -68l-19 -22h-49zM375 1024q2 4 5.5 12t13 35.5t17.5 57.5t16.5 76.5t13 94.5t3 110.5t-9.5 125.5h184q-2 -89 -23 -174.5t-49 -143.5 t-56 -104t-47 -68l-19 -22h-49z" />
<glyph unicode="&#x201e;" horiz-adv-x="634" d="M68 -328q2 4 5.5 12t13 35.5t17.5 57.5t16.5 76.5t13 94.5t3 110.5t-9.5 125.5h184q-2 -89 -23 -174.5t-49 -143.5t-56 -104t-47 -68l-19 -22h-49zM375 -328q2 4 5.5 12t13 35.5t17.5 57.5t16.5 76.5t13 94.5t3 110.5t-9.5 125.5h184q-2 -89 -23 -174.5t-49 -143.5 t-56 -104t-47 -68l-19 -22h-49z" />
<glyph unicode="&#x2022;" horiz-adv-x="819" d="M133 768q0 115 80.5 195.5t196.5 80.5t196 -80t80 -196t-80 -196t-196 -80t-196.5 80.5t-80.5 195.5z" />
<glyph unicode="&#x2026;" horiz-adv-x="2027" d="M225 92q0 47 33 80t80 33t80 -33t33 -80t-33 -79.5t-80 -32.5t-80 32.5t-33 79.5zM901 92q0 47 33 80t80 33t79.5 -33t32.5 -80t-32.5 -79.5t-79.5 -32.5t-80 32.5t-33 79.5zM1577 92q0 47 33 80t80 33t79.5 -33t32.5 -80t-32.5 -79.5t-79.5 -32.5t-80 32.5t-33 79.5z " />
<glyph unicode="&#x202f;" horiz-adv-x="413" />
<glyph unicode="&#x2039;" horiz-adv-x="624" d="M113 444v136l389 286v-155l-248 -199l248 -199v-157z" />
<glyph unicode="&#x203a;" horiz-adv-x="624" d="M123 156v157l248 199l-248 199v155l389 -286v-136z" />
<glyph unicode="&#x205f;" horiz-adv-x="517" />
<glyph unicode="&#x20ac;" d="M123 545v135h123v176h-123v135h131q9 109 29 193.5t58.5 156t95 118t140 72t191.5 25.5q81 0 171.5 -14.5t154.5 -42.5v-123q-160 54 -326 54q-95 0 -163 -30t-110.5 -90t-65 -136.5t-32.5 -182.5h572l-47 -135h-533v-176h471l-47 -135h-416q10 -106 32.5 -182.5 t65 -136.5t110.5 -90t163 -30q166 0 326 54v-123q-64 -28 -154.5 -42.5t-171.5 -14.5q-108 0 -191.5 25.5t-140 71.5t-95 117.5t-58.5 156t-29 194.5h-131z" />
<glyph unicode="&#x2122;" horiz-adv-x="1177" d="M31 1475v61h413v-61h-170v-451h-73v451h-170zM553 1024v512h88l178 -373l180 373h86v-512h-65l4 420l-174 -354h-59l-175 354l5 -420h-68z" />
<glyph unicode="&#xe000;" horiz-adv-x="1024" d="M0 0v1024h1024v-1024h-1024z" />
</font>
</defs>
</svg>
