<?xml version="1.0" standalone="no"?>
<!DOCTYPE svg PUBLIC "-//W3C//DTD SVG 1.1//EN" "http://www.w3.org/Graphics/SVG/1.1/DTD/svg11.dtd" >
<svg xmlns="http://www.w3.org/2000/svg">
<metadata></metadata>
<defs>
<font id="apex_sans_mediumregular" horiz-adv-x="1228" >
<font-face units-per-em="2048" ascent="1536" descent="-512" />
<missing-glyph horiz-adv-x="409" />
<glyph unicode="&#xfb01;" horiz-adv-x="1400" d="M55 844v127l191 53v215q0 156 90 240t291 84q14 0 36.5 -1t46 -4.5t47 -6.5t40.5 -9v-196q-35 10 -81 16t-89 6q-78 0 -126 -30.5t-48 -102.5v-211h303v-180h-303v-844h-207v844h-191zM965 1366q0 59 42 101t101 42t101 -42t42 -101t-42 -101t-101 -42t-101 42t-42 101z M1004 221v803h206v-809q0 -29 17.5 -38t62.5 -9v-195h-39q-123 0 -185 55.5t-62 192.5z" />
<glyph unicode="&#xfb02;" horiz-adv-x="1400" d="M55 844v127l191 53v215q0 156 90 240t291 84q14 0 36.5 -1t46 -4.5t47 -6.5t40.5 -9v-196q-35 10 -81 16t-89 6q-78 0 -126 -30.5t-48 -102.5v-211h303v-180h-303v-844h-207v844h-191zM1004 221v1315h206v-1321q0 -29 17.5 -38t62.5 -9v-195h-39q-123 0 -185 55.5 t-62 192.5z" />
<glyph horiz-adv-x="2048" />
<glyph horiz-adv-x="2048" />
<glyph unicode="&#xd;" horiz-adv-x="2048" />
<glyph unicode=" "  horiz-adv-x="409" />
<glyph unicode="&#x09;" horiz-adv-x="409" />
<glyph unicode="&#xa0;" horiz-adv-x="409" />
<glyph unicode="!" horiz-adv-x="450" d="M82 117q0 59 42 101t101 42t101.5 -42t42.5 -101t-42 -101.5t-102 -42.5q-59 0 -101 42.5t-42 101.5zM86 1536h279l-74 -1106h-131z" />
<glyph unicode="&#x22;" horiz-adv-x="798" d="M86 1536h279l-64 -512h-151zM434 1536h279l-64 -512h-151z" />
<glyph unicode="#" horiz-adv-x="1198" d="M20 750l60 202h174l57 146h-157l59 202h176l88 236h211l-90 -236h207l88 236h211l-90 -236h164l-60 -202h-182l-57 -146h165l-59 -202h-182l-92 -240h-209l88 240h-203l-92 -240h-211l92 240h-156zM463 952h205l57 146h-205z" />
<glyph unicode="$" d="M133 979q0 178 129 266t371 88h12l70 203h227l-84 -217q53 -6 102.5 -18.5t90.5 -28.5v-201q-43 16 -97.5 27.5t-112 17.5t-111.5 9t-99 3q-55 0 -108.5 -6t-93.5 -21.5t-64.5 -41t-24.5 -66.5q0 -39 25.5 -59.5t67.5 -30.5t93.5 -13t102.5 -7q123 -10 211 -27.5 t145 -52.5t84 -92.5t27 -147.5q0 -166 -128 -262t-380 -98l-70 -203h-227l80 215q-66 6 -125.5 17.5t-93.5 27.5v209q37 -16 91 -27.5t113.5 -18.5t117.5 -11t104 -4q61 0 116.5 6t97.5 22.5t67.5 46t25.5 78.5q0 39 -25.5 61.5t-65.5 35t-90.5 18.5t-99.5 10 q-121 10 -209 25.5t-146.5 46t-87 83t-28.5 138.5z" />
<glyph unicode="%" horiz-adv-x="2017" d="M113 1143q0 207 87 313.5t285 106.5q197 0 285 -107.5t88 -312.5q0 -207 -88 -313.5t-285 -106.5q-199 0 -285.5 106.5t-86.5 313.5zM315 1143q0 -123 39 -173t131 -50t131 50t39 173t-38.5 174t-131.5 51q-92 0 -131 -51t-39 -174zM342 0l1090 1536h243l-1089 -1536 h-244zM1161 393q0 205 87 312.5t284 107.5q199 0 286 -106.5t87 -313.5t-87 -313.5t-286 -106.5q-197 0 -284 106.5t-87 313.5zM1362 393q0 -123 40 -174t130 -51q92 0 131 51t39 174t-39 173t-131 50q-90 0 -130 -50t-40 -173z" />
<glyph unicode="&#x26;" horiz-adv-x="1497" d="M102 467q0 76 19.5 140.5t53.5 116.5t79 91t94 68q-18 76 -26.5 140t-8.5 134q0 66 18.5 137.5t63.5 131t118 98.5t181 39q98 0 163 -22.5t102.5 -61.5t52 -90.5t14.5 -106.5q0 -23 -5 -53.5t-13 -52.5h-205q10 31 15 57.5t5 48.5q0 14 -4 28.5t-18.5 26t-39 18.5 t-67.5 7q-53 0 -86 -19.5t-51 -50t-25.5 -66.5t-7.5 -69q0 -90 27 -213t86 -249t152.5 -238.5t226.5 -184.5q70 47 114 128t44 192q0 143 -58.5 201.5t-146.5 58.5q-82 0 -142.5 -11.5t-132.5 -37.5v201q86 29 148.5 38t126.5 9q90 0 166.5 -27t132 -82t87 -142t31.5 -208 q0 -123 -44 -223.5t-111 -171.5v-2q76 -12 184 -13v-209q-123 0 -220 18.5t-179 51.5q-164 -70 -330 -70q-127 0 -233.5 27t-184.5 86t-122 153.5t-44 227.5zM315 467q0 -80 28 -136.5t77 -92t117.5 -53t148.5 -17.5q23 0 48.5 2t41.5 6v2q-129 98 -217 229.5t-147 272.5 q-39 -29 -68 -83t-29 -130z" />
<glyph unicode="'" horiz-adv-x="450" d="M86 1536h279l-64 -512h-151z" />
<glyph unicode="(" horiz-adv-x="704" d="M133 625q0 195 25.5 360.5t63.5 298.5t83 231.5t84 155.5h223q-39 -57 -84 -155.5t-83.5 -231.5t-64.5 -299t-26 -360q0 -195 26 -361t64.5 -299t83.5 -231.5t84 -155.5h-223q-39 57 -84 155.5t-83 231.5t-63.5 299t-25.5 361z" />
<glyph unicode=")" horiz-adv-x="704" d="M92 -422q39 57 84 155.5t84 231.5t64.5 299t25.5 361t-25.5 360.5t-64.5 298.5t-84 231.5t-84 155.5h223q39 -57 84 -155.5t83 -231.5t63.5 -299t25.5 -360q0 -195 -25.5 -361t-63.5 -299t-83 -231.5t-84 -155.5h-223z" />
<glyph unicode="*" horiz-adv-x="860" d="M33 1159l71 223l248 -118l-39 272h238l-39 -272l252 120l63 -225l-264 -47l191 -201l-193 -131l-129 238l-129 -244l-186 141l182 197z" />
<glyph unicode="+" horiz-adv-x="1064" d="M123 598v201h309v309h201v-309h309v-201h-309v-309h-201v309h-309z" />
<glyph unicode="," horiz-adv-x="450" d="M82 117q0 59 42 101t101 42t101.5 -42t42.5 -101q0 -37 -17 -70l-129 -280h-104l47 219q-39 16 -61.5 51t-22.5 80z" />
<glyph unicode="-" horiz-adv-x="757" d="M102 598v201h553v-201h-553z" />
<glyph unicode="." horiz-adv-x="450" d="M82 117q0 59 42 101t101 42t101.5 -42t42.5 -101t-42 -101.5t-102 -42.5q-59 0 -101 42.5t-42 101.5z" />
<glyph unicode="/" horiz-adv-x="937" d="M0 -422l719 2093h219l-719 -2093h-219z" />
<glyph unicode="0" d="M123 768q0 180 12 327.5t61.5 251t147.5 160t270 56.5t270.5 -56.5t147.5 -160t61.5 -251t12.5 -327.5q0 -182 -12.5 -328.5t-61.5 -250t-147.5 -160t-270.5 -56.5t-270 56.5t-147.5 160t-61.5 250t-12 328.5zM340 768q0 -133 5 -243.5t31.5 -189.5t82 -123t155.5 -44 t155.5 44t82.5 123t32 189.5t5 243.5t-5 243.5t-32 189.5t-82.5 123t-155.5 44t-155.5 -44t-82 -123t-31.5 -189.5t-5 -243.5z" />
<glyph unicode="1" d="M184 1337v105l428 121h107v-1383h285v-180h-789v180h285v1170z" />
<glyph unicode="2" d="M102 0v143l693 781q41 47 59 102.5t18 110.5q0 47 -11 89t-42 72.5t-85 49t-142 18.5q-96 0 -185.5 -17.5t-211.5 -68.5v207q72 33 170 54.5t225 21.5q162 0 260 -42t150.5 -105.5t68.5 -138.5t16 -140q0 -104 -51 -202.5t-139 -193.5l-506 -540h717v-201h-1004z" />
<glyph unicode="3" d="M125 41v197q68 -25 186.5 -47.5t247.5 -22.5q113 0 179.5 24.5t102.5 64.5t47 89t11 98q0 125 -65.5 187.5t-221.5 62.5h-317v201h317q70 0 116 22.5t73.5 56.5t39 76t11.5 80q0 45 -10.5 88.5t-43 76t-93 53t-160.5 20.5q-49 0 -107.5 -5t-116 -14.5t-108.5 -21.5 t-88 -24v202q33 12 84 23.5t109.5 18.5t116 11.5t100.5 4.5q166 0 269 -35t162.5 -95.5t81 -138t21.5 -164.5q0 -43 -9 -89t-27.5 -90t-46.5 -80.5t-64 -61.5q51 -23 88 -61.5t60.5 -88t34.5 -104.5t11 -111q0 -92 -22.5 -177t-86 -150.5t-174 -104.5t-284.5 -39 q-135 0 -250 18.5t-174 49.5z" />
<glyph unicode="4" d="M111 414v127l684 1022h143v-955h201v-194h-201v-414h-205v414h-622zM371 608h362v541z" />
<glyph unicode="5" d="M117 41v203q29 -18 77 -32.5t105 -24t117.5 -14.5t115.5 -5q66 0 132.5 11t121 45t88 95.5t33.5 161.5q0 94 -30.5 144.5t-82 73t-119 25.5t-140.5 3h-373v809h930v-195h-725v-419q53 4 107 5t120 1q104 0 200.5 -14.5t168 -60.5t114.5 -134t43 -238q0 -168 -52 -268 t-136 -153.5t-190 -70t-212 -16.5q-66 0 -128 5.5t-117.5 13.5t-98.5 20.5t-69 28.5z" />
<glyph unicode="6" d="M129 688q0 184 21.5 344t82 277.5t168 185.5t281.5 68q117 0 210 -15.5t163 -44.5v-203q-86 35 -177.5 49.5t-195.5 14.5q-100 0 -165.5 -42t-104.5 -112.5t-57.5 -164t-26.5 -197.5q47 51 122.5 86t180.5 35q160 0 253 -49.5t141 -123t61.5 -160.5t13.5 -165t-16.5 -165 t-66.5 -160.5t-142.5 -123t-243.5 -49.5q-166 0 -265.5 51.5t-151.5 145.5t-68.5 226t-16.5 292zM346 471q0 -51 10.5 -104.5t41 -97.5t87 -72.5t146.5 -28.5q86 0 137 30.5t78.5 77t36 99.5t8.5 96t-7 95t-33 98.5t-78 78t-142 31.5t-146.5 -29.5t-87 -74.5t-41 -98.5 t-10.5 -100.5z" />
<glyph unicode="7" d="M102 1341v195h1024v-139l-665 -1397h-236l680 1341h-803z" />
<glyph unicode="8" d="M94 434q0 51 11.5 106.5t35 106.5t59.5 94t85 70q-35 27 -61.5 63.5t-45 78.5t-28 87t-9.5 86q0 84 24.5 163t80 139.5t145.5 97.5t223 37q131 0 222.5 -37t146.5 -97.5t79.5 -139.5t24.5 -163q0 -41 -10 -86t-28.5 -87t-45 -78.5t-59.5 -63.5q49 -27 85 -70t59.5 -94 t35 -106.5t11.5 -106.5q0 -92 -28 -175t-89.5 -146.5t-161 -101.5t-242.5 -38q-145 0 -244.5 38t-161 101.5t-88 146.5t-26.5 175zM311 434q0 -45 14.5 -92t48.5 -86t92 -63.5t148 -24.5q88 0 147.5 24.5t93.5 63.5t48.5 86t14.5 92q0 125 -77 194.5t-227 69.5t-226.5 -69.5 t-76.5 -194.5zM358 1126q0 -39 13.5 -80.5t44 -75.5t79.5 -56.5t119 -22.5t119 22.5t80 56.5t44 75.5t13 80.5q0 41 -10 84t-38.5 78t-78 57.5t-129.5 22.5t-129 -22.5t-77.5 -57.5t-39 -78t-10.5 -84z" />
<glyph unicode="9" d="M129 1065q0 78 16.5 165t66.5 160.5t142 123t244 49.5q166 0 265.5 -51.5t151.5 -145.5t68.5 -226t16.5 -292q0 -184 -21.5 -344t-82 -277.5t-168 -185.5t-281.5 -68q-117 0 -210 15.5t-163 44.5v203q86 -35 177 -49.5t196 -14.5q100 0 165.5 42t104.5 112.5t57.5 164 t26.5 197.5q-47 -51 -123 -86t-180 -35q-160 0 -253 49.5t-141 123t-61.5 160.5t-13.5 165zM338 1065q0 -43 6 -96.5t32.5 -99.5t79 -76.5t142.5 -30.5t146.5 29.5t87 74.5t41 98.5t10.5 100.5q0 51 -10.5 104.5t-41 97.5t-87 72.5t-146.5 28.5q-86 0 -137 -31.5t-79 -78 t-36 -98.5t-8 -95z" />
<glyph unicode=":" horiz-adv-x="450" d="M82 117q0 59 42 101t101 42t101.5 -42t42.5 -101t-42 -101.5t-102 -42.5q-59 0 -101 42.5t-42 101.5zM82 768q0 59 42 101t101 42t101.5 -42t42.5 -101t-42 -101t-102 -42q-59 0 -101 42t-42 101z" />
<glyph unicode=";" horiz-adv-x="450" d="M82 117q0 59 42 101t101 42t101.5 -42t42.5 -101q0 -37 -17 -70l-129 -280h-104l47 219q-39 16 -61.5 51t-22.5 80zM82 768q0 59 42 101t101 42t101.5 -42t42.5 -101t-42 -101t-102 -42q-59 0 -101 42t-42 101z" />
<glyph unicode="&#x3c;" horiz-adv-x="747" d="M92 614v168l553 369v-211l-317 -242l317 -241v-211z" />
<glyph unicode="=" horiz-adv-x="1064" d="M123 428v203h819v-203h-819zM123 766v203h819v-203h-819z" />
<glyph unicode="&#x3e;" horiz-adv-x="747" d="M102 246v211l318 241l-318 242v211l553 -369v-168z" />
<glyph unicode="?" horiz-adv-x="1024" d="M72 1303v200q29 12 70.5 22.5t87.5 18.5t91.5 13.5t81.5 5.5q162 0 261.5 -36t154.5 -96.5t73.5 -136t18.5 -155.5q0 -98 -26.5 -166t-75.5 -115t-117.5 -81.5t-152.5 -69.5q-43 -18 -66.5 -42t-36 -58t-14.5 -78t-2 -99h-150q-8 43 -14 87t-6 79q0 45 10 86t37 79 t72 69.5t112 58.5q43 16 82 33.5t70 43t49 66.5t18 105q0 51 -11 93t-43 71.5t-89 46t-151 16.5q-96 0 -184.5 -19.5t-149.5 -41.5zM225 117q0 59 42 101t102 42q59 0 101 -42t42 -101t-42 -101.5t-101 -42.5t-101.5 42.5t-42.5 101.5z" />
<glyph unicode="@" horiz-adv-x="2072" d="M113 512q0 133 14 262t51 246t103.5 216t170 172t250 114t345.5 41t343 -31t245.5 -87t165 -135t99 -175.5t48 -209t12.5 -233.5q0 -158 -24.5 -284.5t-85 -218t-164 -140.5t-261.5 -49h-127l-20 57q-70 -39 -138.5 -61.5t-142.5 -22.5q-129 0 -215 39t-137 110 t-71.5 170t-20.5 220t20.5 220t71.5 170t137 110t215 39q74 0 142.5 -22.5t138.5 -61.5l20 57h138v-829q92 6 151.5 42.5t94 100t48 153t13.5 201.5q0 141 -20.5 264t-92 214.5t-210 142.5t-373.5 51q-158 0 -273 -34t-194.5 -93t-128 -140t-76 -175.5t-36.5 -199t-9 -210.5 t9 -210.5t36.5 -199t76 -175.5t128 -140t194.5 -93t273 -34q164 0 290.5 27.5t231.5 79.5l2 -226q-106 -39 -235.5 -59.5t-288.5 -20.5q-199 0 -345.5 41t-250 114t-170 172t-103.5 216t-51 246t-14 262zM766 512q0 -70 8 -132.5t32.5 -109.5t70 -74.5t120.5 -27.5 q76 0 131.5 13.5t100.5 35.5v590q-45 23 -100.5 36t-131.5 13t-121 -27.5t-69.5 -74.5t-32.5 -109.5t-8 -132.5z" />
<glyph unicode="A" horiz-adv-x="1402" d="M82 0l545 1563h149l545 -1563h-236l-131 408h-508l-129 -408h-235zM510 606h381l-189 602z" />
<glyph unicode="B" horiz-adv-x="1329" d="M174 0v1536h502q137 0 231 -34t152.5 -91t83 -134t24.5 -163t-37.5 -168t-111.5 -137q104 -51 151.5 -150.5t47.5 -212.5q0 -92 -28 -174t-89.5 -142t-162.5 -95t-249 -35h-514zM391 205h305q90 0 146.5 21.5t88.5 55t43 76.5t11 88q0 129 -63.5 187.5t-221.5 58.5h-309 v-487zM391 897h309q70 0 116 18.5t72.5 49t37 69.5t10.5 80t-9 80t-36 69.5t-77 49t-130 18.5h-293v-434z" />
<glyph unicode="C" horiz-adv-x="1318" d="M143 768q0 164 31 308.5t101.5 253t188.5 171t294 62.5q139 0 242.5 -22.5t175.5 -53.5v-219q-63 27 -116.5 44t-103 27.5t-98.5 14.5t-100 4q-109 0 -183.5 -45t-120.5 -125t-66.5 -187.5t-20.5 -232.5t20.5 -232.5t66.5 -187.5t120.5 -125t183.5 -45q51 0 100 4 t98.5 14.5t102.5 28t117 43.5v-219q-72 -31 -175.5 -53.5t-242.5 -22.5q-176 0 -294 62.5t-188.5 171t-101.5 253t-31 308.5z" />
<glyph unicode="D" horiz-adv-x="1406" d="M174 0v1536h436q190 0 316.5 -58.5t201 -162t105.5 -243.5t31 -304t-31 -304t-105.5 -243.5t-200.5 -162t-317 -58.5h-436zM389 205h229q119 0 200 42t129 116.5t68.5 178t20.5 226.5t-20.5 226.5t-68.5 178t-129 116.5t-200 42h-229v-1126z" />
<glyph unicode="E" horiz-adv-x="1241" d="M174 0v1536h924v-205h-709v-434h641v-205h-641v-487h709v-205h-924z" />
<glyph unicode="F" horiz-adv-x="1204" d="M174 0v1536h907v-205h-690v-434h621v-205h-621v-692h-217z" />
<glyph unicode="G" horiz-adv-x="1417" d="M143 768q0 164 31 308.5t101.5 253t188.5 171t294 62.5q156 0 266.5 -29t181.5 -64v-217q-70 29 -127 48.5t-110.5 32t-104.5 18.5t-106 6q-111 0 -185.5 -45t-120.5 -125t-66.5 -187.5t-20.5 -232.5t20.5 -232.5t66.5 -187.5t120.5 -125t185.5 -45q68 0 143.5 7.5 t126.5 23.5v430h-301v205h516v-776q-88 -41 -206.5 -68t-278.5 -27q-176 0 -294 62.5t-188.5 171t-101.5 253t-31 308.5z" />
<glyph unicode="H" horiz-adv-x="1421" d="M174 0v1536h215v-639h643v639h215v-1536h-215v692h-643v-692h-215z" />
<glyph unicode="I" horiz-adv-x="653" d="M219 0v1536h215v-1536h-215z" />
<glyph unicode="J" horiz-adv-x="876" d="M92 -2v203q57 -14 93 -19.5t83 -5.5q78 0 126 26.5t48 98.5v1235h215v-1231q0 -160 -92 -246t-297 -86q-33 0 -79 6.5t-97 18.5z" />
<glyph unicode="K" horiz-adv-x="1327" d="M174 0v1536h211v-690l543 690h282l-600 -705l656 -831h-283l-512 668l-86 -101v-567h-211z" />
<glyph unicode="L" horiz-adv-x="1163" d="M174 0v1536h215v-1331h672v-205h-887z" />
<glyph unicode="M" horiz-adv-x="1769" d="M174 0v1536h260l451 -1053l450 1053h260v-1536h-211l11 1194l-428 -989h-164l-428 989l10 -1194h-211z" />
<glyph unicode="N" horiz-adv-x="1437" d="M174 0v1536h170l715 -1114l-4 1114h209v-1536h-170l-715 1114l4 -1114h-209z" />
<glyph unicode="O" horiz-adv-x="1454" d="M143 768q0 150 18.5 293t80 254.5t177.5 179.5t308 68q193 0 308.5 -68t177 -179.5t80 -254.5t18.5 -293q0 -152 -18.5 -294t-80 -253.5t-177 -179.5t-308.5 -68t-308.5 68t-177 179.5t-80 253.5t-18.5 294zM365 768q0 -119 12 -226.5t50 -188.5t109.5 -128t190.5 -47 t190.5 47t109.5 128t50.5 188.5t12.5 226.5t-12.5 226.5t-50.5 188.5t-109.5 128t-190.5 47t-190.5 -47t-109.5 -128t-50 -188.5t-12 -226.5z" />
<glyph unicode="P" horiz-adv-x="1282" d="M174 0v1536h488q147 0 248.5 -39t163 -105.5t89 -152.5t27.5 -178q0 -94 -27.5 -180t-89 -152.5t-163 -105.5t-248.5 -39h-271v-584h-217zM391 788h277q92 0 148 26t87 65t42 87t11 95q0 45 -11 93t-42 88t-87 64.5t-148 24.5h-277v-543z" />
<glyph unicode="Q" horiz-adv-x="1454" d="M143 768q0 150 18.5 293t80 254.5t177.5 179.5t308 68q193 0 308.5 -68t177 -179.5t80 -254.5t18.5 -293q0 -111 -9.5 -217.5t-37 -200.5t-78.5 -170t-133 -125v-2l458 -82v-225l-968 252q-131 35 -210 110.5t-121 178t-55.5 226.5t-13.5 255zM365 768q0 -119 12 -226.5 t50 -188.5t109.5 -128t190.5 -47t190.5 47t109.5 128t50.5 188.5t12.5 226.5t-12.5 226.5t-50.5 188.5t-109.5 128t-190.5 47t-190.5 -47t-109.5 -128t-50 -188.5t-12 -226.5z" />
<glyph unicode="R" horiz-adv-x="1374" d="M174 0v1536h496q147 0 247.5 -30.5t160 -89t85 -141.5t25.5 -185q0 -152 -55.5 -257.5t-198.5 -156.5q43 -80 89 -166t92 -173t91 -173t86 -164h-266l-313 639h-324v-639h-215zM389 844h309q84 0 135.5 19.5t79 52t35.5 77.5t8 97q0 49 -8 93t-35.5 76.5t-79 52 t-135.5 19.5h-309v-487z" />
<glyph unicode="S" horiz-adv-x="1292" d="M131 66v210q53 -20 98 -38.5t95.5 -31.5t112 -20.5t145.5 -7.5q102 0 170.5 22.5t109.5 60.5t57.5 89t16.5 109q0 61 -16.5 102t-52.5 66.5t-94 40t-140 24.5h2q-139 18 -234.5 49t-156 80t-87 121t-26.5 170q0 70 20.5 148.5t79 146.5t162 112t269.5 44q139 0 243.5 -25 t175.5 -59v-217q-63 29 -116.5 47t-103.5 29.5t-99 15.5t-100 4q-96 0 -158 -20.5t-95.5 -54.5t-46 -79t-12.5 -94q0 -61 21.5 -99t62.5 -59.5t100.5 -33t137.5 -21.5q117 -14 207 -42t153.5 -78t96 -128t32.5 -190q0 -82 -25.5 -168t-90 -157t-178 -116t-287.5 -45 q-53 0 -113.5 7.5t-121 19.5t-117 29.5t-97.5 36.5z" />
<glyph unicode="T" horiz-adv-x="1198" d="M86 1331v205h1026v-205h-405v-1331h-215v1331h-406z" />
<glyph unicode="U" horiz-adv-x="1437" d="M164 489v1047h215v-1020q0 -117 37 -184.5t89 -101t111.5 -42t102.5 -8.5t102.5 8.5t111.5 42t89 101t37 184.5v1020h215v-1047q0 -113 -27.5 -193.5t-74 -138t-105.5 -93t-120.5 -56t-121 -28t-106.5 -7.5t-106.5 7.5t-121 28t-121 56t-105.5 93t-73.5 139.5t-27.5 192z " />
<glyph unicode="V" horiz-adv-x="1402" d="M82 1536h235l385 -1202l383 1202h236l-545 -1563h-149z" />
<glyph unicode="W" horiz-adv-x="1859" d="M82 1536h231l215 -1165l297 1165h207l299 -1167l215 1167h232l-340 -1563h-199l-309 1215l-312 -1215h-196z" />
<glyph unicode="X" horiz-adv-x="1417" d="M72 0l508 778l-498 758h262l365 -600l364 600h262l-497 -758l508 -778h-269l-368 614l-369 -614h-268z" />
<glyph unicode="Y" horiz-adv-x="1486" d="M82 1536h258l403 -717l404 717h258l-555 -903v-633h-213v633z" />
<glyph unicode="Z" horiz-adv-x="1314" d="M102 0v139l791 1192h-752v205h1043v-139l-793 -1192h821v-205h-1110z" />
<glyph unicode="[" horiz-adv-x="581" d="M154 -422v2093h346v-205h-131v-1683h131v-205h-346z" />
<glyph unicode="\" horiz-adv-x="937" d="M0 1671h219l719 -2093h-219z" />
<glyph unicode="]" horiz-adv-x="581" d="M82 -217h131v1683h-131v205h346v-2093h-346v205z" />
<glyph unicode="^" horiz-adv-x="1105" d="M96 1024l369 512h217l369 -512h-136l-342 362l-342 -362h-135z" />
<glyph unicode="_" horiz-adv-x="655" d="M0 -377h655v-135h-655v135z" />
<glyph unicode="`" horiz-adv-x="1105" d="M219 1536h248l164 -358h-115z" />
<glyph unicode="a" horiz-adv-x="1075" d="M113 324q0 61 16 116.5t59 99.5t116 73.5t188 39.5l231 19v20q0 84 -39 124t-149 40q-45 0 -95.5 -5t-97.5 -14.5t-89 -20.5t-69 -21v194q31 14 75 25.5t93 19.5t97.5 12.5t85.5 4.5q119 0 195.5 -26t121.5 -73t62.5 -112.5t17.5 -145.5v-694h-141l-19 53 q-63 -39 -141 -59.5t-146 -20.5q-106 0 -177.5 30t-114.5 79t-61.5 111.5t-18.5 130.5zM324 324q0 -27 5 -54.5t21.5 -50t50 -37t88.5 -14.5q66 0 129.5 19.5t104.5 43.5v269l-234 -21q-49 -4 -80.5 -19.5t-50 -37t-26.5 -47t-8 -51.5z" />
<glyph unicode="b" horiz-adv-x="1148" d="M143 0v1536h207v-541q61 29 115.5 42.5t116.5 13.5q129 0 215 -39t137 -110t71.5 -170t20.5 -220t-20.5 -220t-71.5 -170t-137 -110t-215 -39q-74 0 -142.5 22.5t-138.5 61.5l-20 -57h-138zM350 217q45 -23 100.5 -36t131.5 -13t121 27.5t69.5 74.5t32.5 109.5t8 132.5 t-8 132.5t-32.5 109.5t-70 74.5t-120.5 27.5q-49 0 -87 -6t-69 -14q-49 -12 -76 -27v-592z" />
<glyph unicode="c" horiz-adv-x="1009" d="M123 512q0 121 22.5 220t75.5 170t141.5 110t217.5 39q72 0 160.5 -12.5t160.5 -47.5v-194q-76 27 -150.5 43t-170.5 16q-76 0 -123 -27.5t-74 -74.5t-37 -109.5t-10 -132.5t10 -132.5t37 -109.5t74 -74.5t123 -27.5q96 0 170.5 16.5t150.5 42.5v-194q-72 -35 -161 -47.5 t-160 -12.5q-129 0 -217.5 39t-141.5 110t-75.5 170t-22.5 220z" />
<glyph unicode="d" horiz-adv-x="1148" d="M123 512q0 121 20.5 220t71.5 170t137 110t215 39q61 0 115.5 -13.5t116.5 -42.5v541h207v-1536h-138l-20 57q-70 -39 -138.5 -61.5t-142.5 -22.5q-129 0 -215 39t-137 110t-71.5 170t-20.5 220zM336 512q0 -70 8 -132.5t32.5 -109.5t70 -74.5t120.5 -27.5 q76 0 131.5 13.5t100.5 35.5v592q-27 15 -76 27q-31 8 -69 14t-87 6q-76 0 -121 -27.5t-69.5 -74.5t-32.5 -109.5t-8 -132.5z" />
<glyph unicode="e" horiz-adv-x="1110" d="M123 512q0 121 22.5 220t75.5 170t141.5 110t217.5 39q135 0 214.5 -44t123 -118t56.5 -172.5t13 -204.5v-98h-647q6 -53 21.5 -98.5t43 -78t70.5 -51t105 -18.5q49 0 92 4t85 12.5t85 22.5t90 35v-199q-98 -45 -188.5 -57.5t-163.5 -12.5q-129 0 -217.5 39t-141.5 110 t-75.5 170t-22.5 220zM338 596h432q0 51 -6 98t-26.5 83t-57.5 57.5t-100 21.5q-66 0 -110 -19.5t-71.5 -55.5t-41 -83t-19.5 -102z" />
<glyph unicode="f" horiz-adv-x="837" d="M55 844v127l191 53v215q0 156 90 240t291 84q14 0 36.5 -1t46 -4.5t47 -6.5t40.5 -9v-196q-35 10 -81 16t-89 6q-78 0 -126 -30.5t-48 -102.5v-211h303v-180h-303v-844h-207v844h-191z" />
<glyph unicode="g" horiz-adv-x="1122" d="M57 -205q0 92 50.5 151.5t121.5 96.5v2q-16 23 -26 51.5t-10 69.5q0 45 20 82t51 65q-86 53 -118.5 142.5t-32.5 195.5q0 82 19.5 155t66.5 127t125.5 86t197.5 32q53 0 99.5 -7.5t85.5 -19.5h329v-139l-139 -39q18 -43 26.5 -92.5t8.5 -102.5q0 -82 -19.5 -154.5 t-66.5 -127t-126 -86t-198 -31.5h-36.5t-34.5 2q-18 -12 -35 -28.5t-17 -32.5q0 -18 8.5 -25.5t28.5 -11.5l326 -39q143 -16 219 -83t76 -210q0 -96 -43 -165t-117 -113t-171 -64.5t-204 -20.5q-219 0 -342 79t-123 255zM266 -205q0 -84 63.5 -111.5t192.5 -27.5 q63 0 121.5 8t104 26.5t72 51.5t26.5 82q0 53 -26.5 77.5t-92.5 32.5l-266 31q-82 -27 -138.5 -66.5t-56.5 -103.5zM313 651q0 -41 6.5 -77.5t28 -64.5t62.5 -45.5t112 -17.5q70 0 112 17.5t64.5 45.5t28.5 64.5t6 77.5q0 39 -6 77t-28.5 65.5t-64.5 45t-112 17.5 q-72 0 -112.5 -17.5t-62 -45t-28 -65.5t-6.5 -77z" />
<glyph unicode="h" horiz-adv-x="1097" d="M143 0v1536h207v-541q55 29 116.5 42.5t121.5 13.5q190 0 283.5 -87t93.5 -243v-721h-211v725q0 72 -47.5 101.5t-118.5 29.5q-78 0 -137.5 -14.5t-100.5 -34.5v-807h-207z" />
<glyph unicode="i" horiz-adv-x="563" d="M127 1366q0 59 42 101t101 42t101.5 -42t42.5 -101t-42 -101t-102 -42q-59 0 -101 42t-42 101zM166 221v803h207v-809q0 -29 17.5 -38t62.5 -9v-195h-39q-123 0 -185.5 55.5t-62.5 192.5z" />
<glyph unicode="j" horiz-adv-x="540" d="M-78 -344q43 6 86 17.5t78 33t57.5 54t22.5 77.5v1186h207v-1204q0 -84 -41 -147.5t-105.5 -107.5t-145.5 -68.5t-159 -28.5v188zM127 1366q0 59 42 101t101 42t101.5 -42t42.5 -101t-42 -101t-102 -42q-59 0 -101 42t-42 101z" />
<glyph unicode="k" horiz-adv-x="1081" d="M143 0v1536h207v-897l359 385h303l-449 -430l490 -594h-287l-342 461l-74 -72v-389h-207z" />
<glyph unicode="l" horiz-adv-x="563" d="M166 221v1315h207v-1321q0 -29 17.5 -38t62.5 -9v-195h-39q-123 0 -185.5 55.5t-62.5 192.5z" />
<glyph unicode="m" horiz-adv-x="1675" d="M143 0v1024h142l20 -57q63 41 137 62.5t140 21.5q104 0 174.5 -27t115.5 -76l27 19q63 41 137 62.5t140 21.5q193 0 279.5 -88.5t86.5 -241.5v-721h-211v707q0 149 -153 149h-2q-72 0 -129.5 -14.5t-98.5 -34.5l-6 -4q6 -37 6 -82v-721h-211v707q0 149 -153 149h-2 q-72 0 -129.5 -14.5t-98.5 -34.5v-807h-211z" />
<glyph unicode="n" horiz-adv-x="1101" d="M143 0v1024h142l20 -57q63 41 138 62.5t149 21.5q190 0 283.5 -87t93.5 -243v-721h-211v725q0 72 -47 101.5t-119 29.5q-78 0 -137.5 -14.5t-100.5 -34.5v-807h-211z" />
<glyph unicode="o" horiz-adv-x="1134" d="M123 512q0 119 17.5 218t66.5 171t135 111t225 39t226.5 -39t135.5 -111t65.5 -171t17.5 -218q0 -121 -17.5 -219t-65.5 -170t-135 -111t-227 -39q-139 0 -225 39t-135 111t-66.5 170t-17.5 219zM332 512q0 -74 6 -136.5t29.5 -108.5t70.5 -72.5t129 -26.5q80 0 127 26.5 t72 72.5t31 108.5t6 136.5t-6 136.5t-31 108.5t-72 72.5t-127 26.5q-82 0 -129 -26.5t-70.5 -72.5t-29.5 -108.5t-6 -136.5z" />
<glyph unicode="p" horiz-adv-x="1148" d="M143 -512v1536h138l20 -57q70 39 138.5 61.5t142.5 22.5q129 0 215 -39t137 -110t71.5 -170t20.5 -220t-20.5 -220t-71.5 -170t-137 -110t-215 -39q-61 0 -115.5 13.5t-116.5 42.5v-541h-207zM350 215q27 -15 76 -27q31 -8 68.5 -14t87.5 -6q76 0 121 27.5t69.5 74.5 t32.5 109.5t8 132.5t-8 132.5t-32.5 109.5t-70 74.5t-120.5 27.5q-76 0 -131.5 -13.5t-100.5 -35.5v-592z" />
<glyph unicode="q" horiz-adv-x="1148" d="M123 512q0 121 20.5 220t71.5 170t137 110t215 39q74 0 142.5 -22.5t138.5 -61.5l20 57h138v-1536h-207v541q-61 -29 -115.5 -42.5t-116.5 -13.5q-129 0 -215 39t-137 110t-71.5 170t-20.5 220zM336 512q0 -70 8 -132.5t32.5 -109.5t70 -74.5t120.5 -27.5q49 0 87 6 t69 14q49 12 76 27v592q-45 23 -100.5 36t-131.5 13t-121 -27.5t-69.5 -74.5t-32.5 -109.5t-8 -132.5z" />
<glyph unicode="r" horiz-adv-x="825" d="M143 0v1024h142l20 -57q133 84 287 84q35 0 76 -4.5t75 -12.5v-209q-39 14 -79.5 22.5t-71.5 8.5q-82 0 -137.5 -14.5t-100.5 -34.5v-807h-211z" />
<glyph unicode="s" horiz-adv-x="995" d="M121 725q0 57 19.5 115.5t65.5 104.5t121.5 76t186.5 30q72 0 153 -12.5t160 -47.5v-194q-76 25 -149.5 42t-165.5 17q-59 0 -96 -10t-58.5 -27.5t-28.5 -42t-7 -51.5q0 -23 7 -40t27.5 -29.5t56.5 -20.5t95 -14q113 -10 183.5 -35t111.5 -64t56 -92t15 -121 q0 -61 -20 -121.5t-69.5 -107.5t-130.5 -77t-199 -30q-37 0 -81 5.5t-89 12.5t-85 17t-69 23v198q61 -23 144 -42t182 -19q61 0 102 12.5t65.5 31.5t35 44t10.5 51q0 25 -6.5 46.5t-26 38t-56 26.5t-96.5 16q-115 10 -185.5 36t-110 63.5t-54 86t-14.5 105.5z" />
<glyph unicode="t" horiz-adv-x="837" d="M55 844v127l191 53v258l207 57v-315h303v-180h-303v-565q0 -66 39.5 -88.5t107.5 -22.5q29 0 62.5 2t50.5 6v-190q-39 -10 -77 -11.5t-52 -1.5q-63 0 -124 16.5t-109 51.5t-76.5 89t-28.5 130v584h-191z" />
<glyph unicode="u" horiz-adv-x="1101" d="M133 303v721h211v-725q0 -72 47 -101.5t119 -29.5q78 0 137.5 14.5t100.5 34.5v807h210v-1024h-141l-20 57q-63 -41 -138 -62.5t-149 -21.5q-190 0 -283.5 87t-93.5 243z" />
<glyph unicode="v" horiz-adv-x="1050" d="M51 1024h230l245 -739l242 739h231l-401 -1051h-145z" />
<glyph unicode="w" horiz-adv-x="1456" d="M51 1024h221l156 -694l201 694h198l205 -692l154 692h219l-289 -1051h-162l-225 783l-227 -783h-162z" />
<glyph unicode="x" horiz-adv-x="1064" d="M31 0l379 526l-359 498h250l231 -356l230 356h252l-359 -498l379 -526h-254l-248 377l-249 -377h-252z" />
<glyph unicode="y" horiz-adv-x="1054" d="M51 1024h238l239 -739l240 739h236l-590 -1536h-230l246 561z" />
<glyph unicode="z" horiz-adv-x="962" d="M72 0v137l522 692h-494v195h772v-137l-522 -692h541v-195h-819z" />
<glyph unicode="{" horiz-adv-x="536" d="M57 520v209h58q49 0 45 43l-35 643q-4 70 13.5 118t52 78.5t85 45t109.5 14.5h70v-211h-70q-47 0 -43 -41l37 -637q2 -47 -13.5 -86t-43.5 -71q29 -35 44 -74t13 -84l-37 -637q-4 -41 43 -41h70v-211h-70q-59 0 -109.5 14.5t-85 45t-52 78.5t-13.5 118l35 643 q4 39 -37 43h-66z" />
<glyph unicode="|" horiz-adv-x="612" d="M199 -422v2093h215v-2093h-215z" />
<glyph unicode="}" horiz-adv-x="536" d="M82 -211h70q47 0 43 41l-37 637q-4 45 12 84t43 74q-27 33 -43 71.5t-12 85.5l37 637q4 41 -43 41h-70v211h70q59 0 109 -14.5t85 -45t52.5 -78.5t13.5 -118l-35 -643q-4 -43 45 -43h57v-209h-57q-49 0 -45 -43l35 -643q4 -70 -13.5 -118t-52.5 -78.5t-85 -45t-109 -14.5 h-70v211z" />
<glyph unicode="~" horiz-adv-x="757" d="M72 668v159q39 -29 74.5 -42t78.5 -13q39 0 69 20.5t60.5 45t69.5 45t96 20.5q53 0 97.5 -24.5t68.5 -49.5v-159q-39 29 -75 42t-79 13q-39 0 -68.5 -20.5t-60 -45t-69.5 -45t-96 -20.5q-53 0 -97.5 24.5t-68.5 49.5z" />
<glyph unicode="&#xa1;" horiz-adv-x="450" d="M82 907q0 59 42 101.5t101 42.5t101.5 -42t42.5 -102q0 -59 -42 -101t-102 -42q-59 0 -101 42t-42 101zM86 -512l74 1106h131l74 -1106h-279z" />
<glyph unicode="&#xa2;" d="M123 768q0 297 148.5 431t426.5 134h9l69 203h228l-84 -221q53 -8 104 -20.5t94 -28.5v-201q-43 16 -97 29.5t-112.5 21.5t-116 12.5t-106.5 4.5q-72 0 -135.5 -16.5t-111.5 -58.5t-75.5 -113t-27.5 -177q0 -109 27.5 -178.5t75.5 -111.5t111.5 -58.5t135.5 -16.5 q49 0 106.5 4.5t116 12.5t112.5 21.5t97 29.5v-201q-47 -18 -104.5 -31.5t-114.5 -21.5t-110.5 -11t-90.5 -3h-49l-69 -203h-228l88 240q-156 51 -236.5 180t-80.5 348z" />
<glyph unicode="&#xa3;" d="M102 0v193h134v512h-134v192h134v266q0 88 24.5 161t79.5 126t143 83t215 30q37 0 89.5 -4.5t107.5 -13.5t109.5 -22.5t93.5 -29.5v-193q-37 12 -86 24.5t-103.5 22t-109 15.5t-101.5 6q-252 0 -252 -203v-268h519v-192h-519v-512h691v-193h-1035z" />
<glyph unicode="&#xa4;" horiz-adv-x="1118" d="M72 512v203h112v106h-112v203h125q14 131 49 232.5t98.5 169t159.5 102.5t233 35q72 0 157 -10.5t165 -45.5v-198q-76 25 -150.5 39t-171.5 14q-152 0 -225.5 -85t-95.5 -253h532l-67 -203h-480v-106h445l-68 -203h-362q23 -170 96.5 -254t224.5 -84q96 0 171 14.5 t151 38.5v-198q-80 -35 -165 -45.5t-157 -10.5q-137 0 -233 35t-159.5 102.5t-98.5 168t-49 233.5h-125z" />
<glyph unicode="&#xa5;" d="M14 1536h254l346 -707l347 707h253l-266 -512h168v-203h-274l-56 -106h330v-203h-395v-512h-213v512h-395v203h327l-55 106h-272v203h168z" />
<glyph unicode="&#xa6;" horiz-adv-x="612" d="M199 -422v946h215v-946h-215zM199 725v946h215v-946h-215z" />
<glyph unicode="&#xa7;" horiz-adv-x="1329" d="M88 557q0 41 8 87t27.5 91t51.5 88t79 80q-47 80 -47 215q0 70 21.5 147.5t82 144.5t166 110t275.5 43q139 0 244.5 -26t181.5 -58v-222q-63 29 -118.5 48.5t-107 31t-100.5 16.5t-102 5q-98 0 -161 -18.5t-98.5 -51.5t-49 -77t-13.5 -95q0 -61 23.5 -99t66.5 -61.5 t104.5 -37t139.5 -27.5h-2q141 -25 234 -55.5t148.5 -77.5t77 -118t21.5 -173q0 -84 -36 -178t-132 -168q49 -84 49 -215q0 -70 -21.5 -147.5t-82 -144.5t-167 -110t-273.5 -43q-139 0 -245 26t-181 58v222q63 -29 118.5 -48.5t106.5 -31t100 -16.5t103 -5q98 0 160.5 18.5 t98 51.5t49 77t13.5 95q0 61 -23.5 99t-66.5 60.5t-104.5 37t-139.5 28.5h2q-141 25 -234 55.5t-148.5 77.5t-77 118t-21.5 173zM309 555q0 -61 17.5 -98t54.5 -58.5t92 -34t133 -26.5h-2q174 -31 285 -74q72 39 101.5 92.5t29.5 112.5q0 61 -17.5 98t-54.5 58.5t-93 34 t-132 26.5h2q-88 16 -158.5 33.5t-126.5 40.5q-74 -39 -102.5 -92.5t-28.5 -112.5z" />
<glyph unicode="&#xa8;" horiz-adv-x="1105" d="M205 1366q0 59 42 101t101 42t101.5 -42t42.5 -101t-42 -101t-102 -42q-59 0 -101 42t-42 101zM655 1366q0 59 42 101t102 42q59 0 101 -42t42 -101t-42 -101t-101 -42t-101.5 42t-42.5 101z" />
<glyph unicode="&#xa9;" horiz-adv-x="1392" d="M147 512q0 166 44.5 271.5t120 165t175 81t209.5 21.5q111 0 210.5 -21.5t175 -81t119.5 -165t44 -271.5t-44 -271.5t-119.5 -165t-175 -81t-210.5 -21.5t-210 21.5t-174.5 81t-120 165t-44.5 271.5zM330 512q0 -117 27.5 -189.5t75.5 -111.5t115.5 -52.5t147.5 -13.5 t147.5 13.5t116 52.5t76 111.5t27.5 189.5t-27.5 189.5t-76 111.5t-116 52.5t-147.5 13.5t-147.5 -13.5t-115.5 -52.5t-75.5 -111.5t-27.5 -189.5zM418 512q0 166 71.5 231.5t206.5 65.5q39 0 89.5 -6t99.5 -17v-168q-41 10 -92.5 20.5t-96.5 10.5q-55 0 -82.5 -26.5 t-27.5 -110.5t27.5 -110.5t82.5 -26.5q45 0 96.5 10t92.5 21v-168q-49 -10 -99.5 -16.5t-89.5 -6.5q-135 0 -206.5 65.5t-71.5 231.5z" />
<glyph unicode="&#xaa;" horiz-adv-x="819" d="M80 1022q0 115 73.5 181.5t223.5 76.5l133 8q-2 47 -24.5 68.5t-82.5 21.5q-57 0 -121.5 -15t-134.5 -40v186q66 29 134.5 41.5t121.5 12.5q92 0 151.5 -20.5t93.5 -57.5t47.5 -88t13.5 -115v-514h-142l-10 27q-98 -43 -182 -43q-160 0 -227.5 70.5t-67.5 199.5z M281 1022q0 -35 19 -60.5t79 -25.5q33 0 66.5 9t64.5 24v147l-129 -10q-100 -8 -100 -84z" />
<glyph unicode="&#xab;" horiz-adv-x="1013" d="M113 418v188l389 287v-178l-219 -203l219 -203v-180zM502 418v188l389 287v-178l-219 -203l219 -203v-180z" />
<glyph unicode="&#xac;" horiz-adv-x="1351" d="M164 0v1024h1024v-1024h-1024z" />
<glyph unicode="&#xad;" horiz-adv-x="757" d="M102 598v201h553v-201h-553z" />
<glyph unicode="&#xae;" horiz-adv-x="704" d="M66 1280q0 88 23.5 143.5t63.5 86t91 42t108 11.5t108.5 -11.5t91.5 -42t63.5 -86t23.5 -143.5q0 -86 -23.5 -141.5t-63.5 -87t-91 -43t-109 -11.5q-57 0 -108 11.5t-91 43t-63.5 87t-23.5 141.5zM158 1280q0 -63 14 -102t41 -59.5t61.5 -28t77.5 -7.5t78 7.5t61.5 28 t41 59.5t14.5 102t-14.5 102t-41 59.5t-61.5 28t-78 7.5t-77.5 -7.5t-61.5 -28t-41 -59.5t-14 -102zM229 1126v308h138q61 0 84.5 -28t23.5 -73q0 -61 -39 -88l58 -119h-93l-43 103h-47v-103h-82zM311 1309h51q16 0 20.5 7t4.5 17t-4 15.5t-21 5.5h-51v-45z" />
<glyph unicode="&#xaf;" horiz-adv-x="1105" d="M272 1313v186h562v-186h-562z" />
<glyph unicode="&#xb0;" horiz-adv-x="749" d="M86 1280q0 82 25.5 137.5t66.5 87t92.5 45t104.5 13.5t104 -13.5t92 -45t67 -87t26 -137.5t-26 -136t-67 -87t-92 -46.5t-104 -13.5t-104.5 13.5t-92.5 46.5t-66.5 87t-25.5 136zM246 1280q0 -72 34.5 -101.5t94.5 -29.5q59 0 94 29.5t35 101.5t-35 101.5t-94 29.5 t-94 -29.5t-35 -101.5z" />
<glyph unicode="&#xb1;" horiz-adv-x="1064" d="M123 88v201h819v-201h-819zM123 700v201h309v309h201v-309h309v-201h-309v-309h-201v309h-309z" />
<glyph unicode="&#xb4;" horiz-adv-x="1105" d="M516 1178l164 358h248l-297 -358h-115z" />
<glyph unicode="&#xb5;" horiz-adv-x="1101" d="M133 -512v1536h211v-733q2 -68 49 -95.5t117 -27.5q78 0 137.5 14.5t100.5 34.5v807h210v-1024h-141l-20 57q-63 -41 -138 -62.5t-149 -21.5q-92 0 -166 23v-508h-211z" />
<glyph unicode="&#xb6;" horiz-adv-x="1241" d="M72 1061q0 92 27.5 178t89 152.5t163 105.5t248.5 39h487v-1536h-217v584h-161v-584h-215v590q-117 14 -198 57t-130 106.5t-71.5 142.5t-22.5 165zM305 1061q0 -39 7 -80t27.5 -77t57.5 -64.5t97 -40.5v522q-59 -12 -96.5 -41t-58 -64.5t-27.5 -75.5t-7 -79zM709 788 h161v543h-161v-543z" />
<glyph unicode="&#xb7;" horiz-adv-x="450" d="M82 768q0 59 42 101t101 42t101.5 -42t42.5 -101t-42 -101t-102 -42q-59 0 -101 42t-42 101z" />
<glyph unicode="&#xb8;" horiz-adv-x="1232" d="M441.5 -104.5q7.5 30.5 24.5 58.5t32 46h145q-14 -18 -25.5 -36.5t-14.5 -37t5 -37t37 -34.5q51 -29 65.5 -62t8.5 -65.5t-25.5 -60t-38.5 -46.5h-209q20 18 39 41t28 46.5t6 43t-23 31.5q-41 23 -51.5 52.5t-3 60z" />
<glyph unicode="&#xba;" horiz-adv-x="960" d="M115 1157q0 199 84 302.5t274 103.5q193 0 283 -103.5t90 -302.5t-90 -302t-283 -103q-190 0 -274 103t-84 302zM309 1157q0 -119 39 -168t125 -49q92 0 136 50t44 167t-44 167t-136 50q-86 0 -125 -49t-39 -168z" />
<glyph unicode="&#xbb;" horiz-adv-x="1013" d="M123 129v180l219 203l-219 203v178l389 -287v-188zM512 129v180l219 203l-219 203v178l389 -287v-188z" />
<glyph unicode="&#xbf;" horiz-adv-x="1024" d="M72 -115q0 98 26.5 166t75.5 115t117.5 81.5t152.5 69.5q43 18 67 42t36 58t14 78t2 99h150q8 -43 14 -87t6 -79q0 -45 -10 -86t-37 -79t-72 -69.5t-112 -58.5q-43 -16 -82 -33.5t-70 -43t-49 -66.5t-18 -105q0 -51 11 -93t43 -71.5t89 -46t152 -16.5q96 0 184 19.5 t149 41.5v-200q-29 -12 -70.5 -22.5t-87.5 -18.5t-91.5 -13.5t-81.5 -5.5q-162 0 -261.5 36t-154.5 96.5t-73.5 136t-18.5 155.5zM471 907q0 59 42 101.5t101 42.5t101.5 -42.5t42.5 -101.5t-42 -101t-102 -42q-59 0 -101 42t-42 101z" />
<glyph unicode="&#xc0;" horiz-adv-x="1402" d="M82 0l545 1563h149l545 -1563h-236l-131 408h-508l-129 -408h-235zM348 2048h248l164 -358h-115zM510 606h381l-189 602z" />
<glyph unicode="&#xc1;" horiz-adv-x="1402" d="M82 0l545 1563h149l545 -1563h-236l-131 408h-508l-129 -408h-235zM510 606h381l-189 602zM645 1690l164 358h248l-297 -358h-115z" />
<glyph unicode="&#xc2;" horiz-adv-x="1402" d="M82 0l545 1563h149l545 -1563h-236l-131 408h-508l-129 -408h-235zM338 1690l256 358h217l256 -358h-115l-250 215l-249 -215h-115zM510 606h381l-189 602z" />
<glyph unicode="&#xc3;" horiz-adv-x="1402" d="M82 0l545 1563h149l545 -1563h-236l-131 408h-508l-129 -408h-235zM303 1743q4 147 65.5 216t190.5 66q63 -2 102 -22.5t68 -44t54.5 -43t62.5 -19.5q31 0 49 10.5t27.5 27t12.5 36t3 39.5l164 -14q-2 -287 -256 -281q-63 0 -102 20.5t-68 44t-54.5 43t-62.5 19.5 q-31 0 -49 -10t-27.5 -25.5t-12.5 -36t-3 -40.5zM510 606h381l-189 602z" />
<glyph unicode="&#xc4;" horiz-adv-x="1402" d="M82 0l545 1563h149l545 -1563h-236l-131 408h-508l-129 -408h-235zM334 1878q0 59 42 101t101 42t101.5 -42t42.5 -101t-42 -101t-102 -42q-59 0 -101 42t-42 101zM510 606h381l-189 602zM784 1878q0 59 42 101t102 42q59 0 101 -42t42 -101t-42 -101t-101 -42t-101.5 42 t-42.5 101z" />
<glyph unicode="&#xc5;" horiz-adv-x="1402" d="M82 0l545 1563h149l545 -1563h-236l-131 408h-508l-129 -408h-235zM494 1868q0 109 57 158t151 49q92 0 149.5 -49t57.5 -158q0 -106 -57 -155.5t-150 -49.5q-94 0 -151 49t-57 156zM510 606h381l-189 602zM612 1868q0 -49 22.5 -68.5t67.5 -19.5q43 0 67 19.5t24 68.5 q0 53 -24 72.5t-67 19.5q-45 0 -67.5 -19.5t-22.5 -72.5z" />
<glyph unicode="&#xc6;" horiz-adv-x="2088" d="M-2 0l1010 1536h940v-205h-711v-434h641v-205h-641v-487h711v-205h-926v692h-324l-444 -692h-256zM829 897h193v301z" />
<glyph unicode="&#xc7;" horiz-adv-x="1318" d="M143 768q0 164 31 308.5t101.5 253t188.5 171t294 62.5q139 0 242.5 -22.5t175.5 -53.5v-219q-63 27 -116.5 44t-103 27.5t-98.5 14.5t-100 4q-109 0 -183.5 -45t-120.5 -125t-66.5 -187.5t-20.5 -232.5t20.5 -232.5t66.5 -187.5t120.5 -125t183.5 -45q51 0 100 4 t98.5 14.5t102.5 28t117 43.5v-219q-66 -29 -157 -49t-212 -25q-20 -31 -22.5 -62.5t44.5 -57.5q51 -29 65.5 -62t8.5 -65.5t-25.5 -60t-37.5 -46.5h-209q20 18 38.5 41t28 46.5t6 43t-23.5 31.5q-37 18 -49.5 44t-9 53.5t16.5 53t28 46.5q-147 16 -248 83.5t-162 174 t-87 242.5t-26 288z" />
<glyph unicode="&#xc8;" horiz-adv-x="1241" d="M174 0v1536h924v-205h-709v-434h641v-205h-641v-487h709v-205h-924zM283 2048h247l164 -358h-114z" />
<glyph unicode="&#xc9;" horiz-adv-x="1241" d="M174 0v1536h924v-205h-709v-434h641v-205h-641v-487h709v-205h-924zM580 1690l163 358h248l-297 -358h-114z" />
<glyph unicode="&#xca;" horiz-adv-x="1241" d="M174 0v1536h924v-205h-709v-434h641v-205h-641v-487h709v-205h-924zM272 1690l256 358h217l256 -358h-114l-250 215l-250 -215h-115z" />
<glyph unicode="&#xcb;" horiz-adv-x="1241" d="M174 0v1536h924v-205h-709v-434h641v-205h-641v-487h709v-205h-924zM268 1878q0 59 42 101t102 42q59 0 101 -42t42 -101t-42 -101t-101 -42t-101.5 42t-42.5 101zM719 1878q0 59 42 101t101 42t101.5 -42t42.5 -101t-42 -101t-102 -42q-59 0 -101 42t-42 101z" />
<glyph unicode="&#xcc;" horiz-adv-x="653" d="M-27 2048h248l164 -358h-115zM219 0v1536h215v-1536h-215z" />
<glyph unicode="&#xcd;" horiz-adv-x="653" d="M219 0v1536h215v-1536h-215zM270 1690l164 358h248l-297 -358h-115z" />
<glyph unicode="&#xce;" horiz-adv-x="653" d="M-37 1690l256 358h217l256 -358h-114l-250 215l-250 -215h-115zM219 0v1536h215v-1536h-215z" />
<glyph unicode="&#xcf;" horiz-adv-x="653" d="M-41 1878q0 59 42 101t101 42t101.5 -42t42.5 -101t-42 -101t-102 -42q-59 0 -101 42t-42 101zM219 0v1536h215v-1536h-215zM410 1878q0 59 42 101t101 42t101 -42t42 -101t-42 -101t-101 -42t-101 42t-42 101z" />
<glyph unicode="&#xd0;" horiz-adv-x="1468" d="M51 688v168h185v680h436q190 0 316 -58.5t201 -162t105.5 -243.5t30.5 -304t-30.5 -304t-105.5 -243.5t-201 -162t-316 -58.5h-436v688h-185zM451 205h229q119 0 200 42t129 116.5t68.5 178t20.5 226.5t-20.5 226.5t-68.5 178t-129 116.5t-200 42h-229v-475h276v-168 h-276v-483z" />
<glyph unicode="&#xd1;" horiz-adv-x="1437" d="M174 0v1536h170l715 -1114l-4 1114h209v-1536h-170l-715 1114l4 -1114h-209zM319 1743q4 147 65.5 216t190.5 66q63 -2 102.5 -22.5t68 -44t54 -43t62.5 -19.5q31 0 49.5 10.5t27.5 27t12 36t3 39.5l164 -14q-2 -287 -256 -281q-63 0 -102 20.5t-67.5 44t-54.5 43 t-63 19.5q-31 0 -49 -10t-27.5 -25.5t-12.5 -36t-3 -40.5z" />
<glyph unicode="&#xd2;" horiz-adv-x="1454" d="M143 768q0 150 18.5 293t80 254.5t177.5 179.5t308 68q193 0 308.5 -68t177 -179.5t80 -254.5t18.5 -293q0 -152 -18.5 -294t-80 -253.5t-177 -179.5t-308.5 -68t-308.5 68t-177 179.5t-80 253.5t-18.5 294zM365 768q0 -119 12 -226.5t50 -188.5t109.5 -128t190.5 -47 t190.5 47t109.5 128t50.5 188.5t12.5 226.5t-12.5 226.5t-50.5 188.5t-109.5 128t-190.5 47t-190.5 -47t-109.5 -128t-50 -188.5t-12 -226.5zM373 2048h248l163 -358h-114z" />
<glyph unicode="&#xd3;" horiz-adv-x="1454" d="M143 768q0 150 18.5 293t80 254.5t177.5 179.5t308 68q193 0 308.5 -68t177 -179.5t80 -254.5t18.5 -293q0 -152 -18.5 -294t-80 -253.5t-177 -179.5t-308.5 -68t-308.5 68t-177 179.5t-80 253.5t-18.5 294zM365 768q0 -119 12 -226.5t50 -188.5t109.5 -128t190.5 -47 t190.5 47t109.5 128t50.5 188.5t12.5 226.5t-12.5 226.5t-50.5 188.5t-109.5 128t-190.5 47t-190.5 -47t-109.5 -128t-50 -188.5t-12 -226.5zM670 1690l164 358h247l-297 -358h-114z" />
<glyph unicode="&#xd4;" horiz-adv-x="1454" d="M143 768q0 150 18.5 293t80 254.5t177.5 179.5t308 68q193 0 308.5 -68t177 -179.5t80 -254.5t18.5 -293q0 -152 -18.5 -294t-80 -253.5t-177 -179.5t-308.5 -68t-308.5 68t-177 179.5t-80 253.5t-18.5 294zM362 1690l256 358h218l256 -358h-115l-250 215l-250 -215h-115 zM365 768q0 -119 12 -226.5t50 -188.5t109.5 -128t190.5 -47t190.5 47t109.5 128t50.5 188.5t12.5 226.5t-12.5 226.5t-50.5 188.5t-109.5 128t-190.5 47t-190.5 -47t-109.5 -128t-50 -188.5t-12 -226.5z" />
<glyph unicode="&#xd5;" horiz-adv-x="1454" d="M143 768q0 150 18.5 293t80 254.5t177.5 179.5t308 68q193 0 308.5 -68t177 -179.5t80 -254.5t18.5 -293q0 -152 -18.5 -294t-80 -253.5t-177 -179.5t-308.5 -68t-308.5 68t-177 179.5t-80 253.5t-18.5 294zM328 1743q4 147 65.5 216t190.5 66q63 -2 102 -22.5t67.5 -44 t54.5 -43t62 -19.5q31 0 49.5 10.5t27.5 27t12.5 36t3.5 39.5l163 -14q-2 -287 -256 -281q-63 0 -102 20.5t-67.5 44t-54 43t-62.5 19.5q-31 0 -49.5 -10t-27.5 -25.5t-12 -36t-3 -40.5zM365 768q0 -119 12 -226.5t50 -188.5t109.5 -128t190.5 -47t190.5 47t109.5 128 t50.5 188.5t12.5 226.5t-12.5 226.5t-50.5 188.5t-109.5 128t-190.5 47t-190.5 -47t-109.5 -128t-50 -188.5t-12 -226.5z" />
<glyph unicode="&#xd6;" horiz-adv-x="1454" d="M143 768q0 150 18.5 293t80 254.5t177.5 179.5t308 68q193 0 308.5 -68t177 -179.5t80 -254.5t18.5 -293q0 -152 -18.5 -294t-80 -253.5t-177 -179.5t-308.5 -68t-308.5 68t-177 179.5t-80 253.5t-18.5 294zM358 1878q0 59 42 101t102 42q59 0 101 -42t42 -101t-42 -101 t-101 -42t-101.5 42t-42.5 101zM365 768q0 -119 12 -226.5t50 -188.5t109.5 -128t190.5 -47t190.5 47t109.5 128t50.5 188.5t12.5 226.5t-12.5 226.5t-50.5 188.5t-109.5 128t-190.5 47t-190.5 -47t-109.5 -128t-50 -188.5t-12 -226.5zM809 1878q0 59 42 101t101 42 t101.5 -42t42.5 -101t-42 -101t-102 -42q-59 0 -101 42t-42 101z" />
<glyph unicode="&#xd7;" horiz-adv-x="1064" d="M172 479l219 219l-219 220l141 141l219 -219l220 219l141 -141l-219 -220l219 -219l-141 -141l-220 219l-219 -219z" />
<glyph unicode="&#xd8;" horiz-adv-x="1454" d="M115 0l131 211q-66 113 -84.5 258t-18.5 299q0 150 18.5 293t80 254.5t177.5 179.5t308 68q100 0 179 -19.5t138 -54.5l29 47h279l-140 -221q61 -113 80 -255t19 -292q0 -152 -18.5 -294t-80 -253.5t-177 -179.5t-308.5 -68q-98 0 -174 17.5t-135 50.5l-25 -41h-278z M365 768q0 -88 6 -169t22 -153l535 857q-39 27 -88 41t-113 14q-119 0 -190.5 -47t-109.5 -128t-50 -188.5t-12 -226.5zM535 225q76 -47 192 -47q119 0 190.5 47t109.5 128t50.5 188.5t12.5 226.5q0 84 -5.5 161t-21.5 144z" />
<glyph unicode="&#xd9;" horiz-adv-x="1437" d="M164 489v1047h215v-1020q0 -117 37 -184.5t89 -101t111.5 -42t102.5 -8.5t102.5 8.5t111.5 42t89 101t37 184.5v1020h215v-1047q0 -113 -27.5 -193.5t-74 -138t-105.5 -93t-120.5 -56t-121 -28t-106.5 -7.5t-106.5 7.5t-121 28t-121 56t-105.5 93t-73.5 139.5t-27.5 192z M365 2048h247l164 -358h-114z" />
<glyph unicode="&#xda;" horiz-adv-x="1437" d="M164 489v1047h215v-1020q0 -117 37 -184.5t89 -101t111.5 -42t102.5 -8.5t102.5 8.5t111.5 42t89 101t37 184.5v1020h215v-1047q0 -113 -27.5 -193.5t-74 -138t-105.5 -93t-120.5 -56t-121 -28t-106.5 -7.5t-106.5 7.5t-121 28t-121 56t-105.5 93t-73.5 139.5t-27.5 192z M662 1690l163 358h248l-297 -358h-114z" />
<glyph unicode="&#xdb;" horiz-adv-x="1437" d="M164 489v1047h215v-1020q0 -117 37 -184.5t89 -101t111.5 -42t102.5 -8.5t102.5 8.5t111.5 42t89 101t37 184.5v1020h215v-1047q0 -113 -27.5 -193.5t-74 -138t-105.5 -93t-120.5 -56t-121 -28t-106.5 -7.5t-106.5 7.5t-121 28t-121 56t-105.5 93t-73.5 139.5t-27.5 192z M354 1690l256 358h217l256 -358h-114l-250 215l-250 -215h-115z" />
<glyph unicode="&#xdc;" horiz-adv-x="1437" d="M164 489v1047h215v-1020q0 -117 37 -184.5t89 -101t111.5 -42t102.5 -8.5t102.5 8.5t111.5 42t89 101t37 184.5v1020h215v-1047q0 -113 -27.5 -193.5t-74 -138t-105.5 -93t-120.5 -56t-121 -28t-106.5 -7.5t-106.5 7.5t-121 28t-121 56t-105.5 93t-73.5 139.5t-27.5 192z M350 1878q0 59 42 101t102 42q59 0 101 -42t42 -101t-42 -101t-101 -42t-101.5 42t-42.5 101zM801 1878q0 59 42 101t101 42t101 -42t42 -101t-41.5 -101t-101.5 -42q-59 0 -101 42t-42 101z" />
<glyph unicode="&#xdd;" horiz-adv-x="1486" d="M82 1536h258l403 -717l404 717h258l-555 -903v-633h-213v633zM686 1690l164 358h248l-297 -358h-115z" />
<glyph unicode="&#xde;" horiz-adv-x="1282" d="M174 0v1536h217v-293h271q147 0 248.5 -39t163 -105.5t89 -152.5t27.5 -178q0 -94 -27.5 -180t-89 -152.5t-163 -105.5t-248.5 -39h-271v-291h-217zM391 496h277q92 0 148 25.5t87 64.5t42 87t11 95q0 45 -11 93t-42 88t-87 64.5t-148 24.5h-277v-542z" />
<glyph unicode="&#xdf;" horiz-adv-x="1320" d="M164 0v1202q0 76 26.5 140.5t83 111.5t143.5 74.5t206 27.5t204.5 -27.5t143 -74.5t84 -111.5t26.5 -140.5q0 -68 -14 -120t-47 -92t-85 -67.5t-128 -48.5q-74 -18 -104.5 -47.5t-30.5 -78.5q0 -45 36.5 -69t145.5 -36q113 -12 184.5 -38.5t112.5 -66.5t57.5 -94.5 t16.5 -121.5q0 -61 -21.5 -123t-71 -111t-130 -78.5t-199.5 -29.5q-37 0 -81 5t-88 13t-85 18.5t-68 22.5v197q61 -23 144.5 -42.5t179.5 -19.5q63 0 104 13.5t65.5 34t34 46t9.5 51.5q0 25 -6 47.5t-24.5 41t-54.5 31t-95 18.5q-115 10 -186.5 35.5t-112.5 63.5t-55.5 86 t-14.5 106q0 61 13.5 109t46 85t89 64.5t142.5 50.5q39 10 61.5 25.5t34.5 35t15 41t3 45.5q0 66 -61 112t-190 46t-191.5 -46t-62.5 -112v-1204h-205z" />
<glyph unicode="&#xe0;" horiz-adv-x="1075" d="M113 324q0 61 16 116.5t59 99.5t116 73.5t188 39.5l231 19v20q0 84 -39 124t-149 40q-45 0 -95.5 -5t-97.5 -14.5t-89 -20.5t-69 -21v194q31 14 75 25.5t93 19.5t97.5 12.5t85.5 4.5q119 0 195.5 -26t121.5 -73t62.5 -112.5t17.5 -145.5v-694h-141l-19 53 q-63 -39 -141 -59.5t-146 -20.5q-106 0 -177.5 30t-114.5 79t-61.5 111.5t-18.5 130.5zM180 1536h248l164 -358h-115zM324 324q0 -27 5 -54.5t21.5 -50t50 -37t88.5 -14.5q66 0 129.5 19.5t104.5 43.5v269l-234 -21q-49 -4 -80.5 -19.5t-50 -37t-26.5 -47t-8 -51.5z" />
<glyph unicode="&#xe1;" horiz-adv-x="1075" d="M113 324q0 61 16 116.5t59 99.5t116 73.5t188 39.5l231 19v20q0 84 -39 124t-149 40q-45 0 -95.5 -5t-97.5 -14.5t-89 -20.5t-69 -21v194q31 14 75 25.5t93 19.5t97.5 12.5t85.5 4.5q119 0 195.5 -26t121.5 -73t62.5 -112.5t17.5 -145.5v-694h-141l-19 53 q-63 -39 -141 -59.5t-146 -20.5q-106 0 -177.5 30t-114.5 79t-61.5 111.5t-18.5 130.5zM324 324q0 -27 5 -54.5t21.5 -50t50 -37t88.5 -14.5q66 0 129.5 19.5t104.5 43.5v269l-234 -21q-49 -4 -80.5 -19.5t-50 -37t-26.5 -47t-8 -51.5zM477 1178l164 358h248l-297 -358h-115 z" />
<glyph unicode="&#xe2;" horiz-adv-x="1075" d="M113 324q0 61 16 116.5t59 99.5t116 73.5t188 39.5l231 19v20q0 84 -39 124t-149 40q-45 0 -95.5 -5t-97.5 -14.5t-89 -20.5t-69 -21v194q31 14 75 25.5t93 19.5t97.5 12.5t85.5 4.5q119 0 195.5 -26t121.5 -73t62.5 -112.5t17.5 -145.5v-694h-141l-19 53 q-63 -39 -141 -59.5t-146 -20.5q-106 0 -177.5 30t-114.5 79t-61.5 111.5t-18.5 130.5zM170 1178l256 358h217l256 -358h-115l-249 215l-250 -215h-115zM324 324q0 -27 5 -54.5t21.5 -50t50 -37t88.5 -14.5q66 0 129.5 19.5t104.5 43.5v269l-234 -21q-49 -4 -80.5 -19.5 t-50 -37t-26.5 -47t-8 -51.5z" />
<glyph unicode="&#xe3;" horiz-adv-x="1075" d="M113 324q0 61 16 116.5t59 99.5t116 73.5t188 39.5l231 19v20q0 84 -39 124t-149 40q-45 0 -95.5 -5t-97.5 -14.5t-89 -20.5t-69 -21v194q31 14 75 25.5t93 19.5t97.5 12.5t85.5 4.5q119 0 195.5 -26t121.5 -73t62.5 -112.5t17.5 -145.5v-694h-141l-19 53 q-63 -39 -141 -59.5t-146 -20.5q-106 0 -177.5 30t-114.5 79t-61.5 111.5t-18.5 130.5zM145 1231q4 147 65.5 216t190.5 66q63 -2 102.5 -22.5t68 -44t54 -43t62.5 -19.5q31 0 49.5 10.5t27.5 27t12 36t3 39.5l164 -14q-2 -287 -256 -281q-63 0 -102 20.5t-68 44t-54.5 43 t-62.5 19.5q-31 0 -49 -10t-27.5 -25.5t-12.5 -36t-3 -40.5zM324 324q0 -27 5 -54.5t21.5 -50t50 -37t88.5 -14.5q66 0 129.5 19.5t104.5 43.5v269l-234 -21q-49 -4 -80.5 -19.5t-50 -37t-26.5 -47t-8 -51.5z" />
<glyph unicode="&#xe4;" horiz-adv-x="1075" d="M113 324q0 61 16 116.5t59 99.5t116 73.5t188 39.5l231 19v20q0 84 -39 124t-149 40q-45 0 -95.5 -5t-97.5 -14.5t-89 -20.5t-69 -21v194q31 14 75 25.5t93 19.5t97.5 12.5t85.5 4.5q119 0 195.5 -26t121.5 -73t62.5 -112.5t17.5 -145.5v-694h-141l-19 53 q-63 -39 -141 -59.5t-146 -20.5q-106 0 -177.5 30t-114.5 79t-61.5 111.5t-18.5 130.5zM166 1366q0 59 42 101t101 42t101.5 -42t42.5 -101t-42 -101t-102 -42q-59 0 -101 42t-42 101zM324 324q0 -27 5 -54.5t21.5 -50t50 -37t88.5 -14.5q66 0 129.5 19.5t104.5 43.5v269 l-234 -21q-49 -4 -80.5 -19.5t-50 -37t-26.5 -47t-8 -51.5zM616 1366q0 59 42 101t102 42q59 0 101 -42t42 -101t-42 -101t-101 -42t-101.5 42t-42.5 101z" />
<glyph unicode="&#xe5;" horiz-adv-x="1075" d="M113 324q0 61 16 116.5t59 99.5t116 73.5t188 39.5l231 19v20q0 84 -39 124t-149 40q-45 0 -95.5 -5t-97.5 -14.5t-89 -20.5t-69 -21v194q31 14 75 25.5t93 19.5t97.5 12.5t85.5 4.5q119 0 195.5 -26t121.5 -73t62.5 -112.5t17.5 -145.5v-694h-141l-19 53 q-63 -39 -141 -59.5t-146 -20.5q-106 0 -177.5 30t-114.5 79t-61.5 111.5t-18.5 130.5zM324 324q0 -27 5 -54.5t21.5 -50t50 -37t88.5 -14.5q66 0 129.5 19.5t104.5 43.5v269l-234 -21q-49 -4 -80.5 -19.5t-50 -37t-26.5 -47t-8 -51.5zM326 1356q0 109 57 158t152 49 q92 0 149 -49t57 -158q0 -106 -57 -155.5t-149 -49.5q-94 0 -151.5 49t-57.5 156zM444 1356q0 -49 22.5 -68.5t68.5 -19.5q43 0 66.5 19.5t23.5 68.5q0 53 -23.5 72.5t-66.5 19.5q-45 0 -68 -19.5t-23 -72.5z" />
<glyph unicode="&#xe6;" horiz-adv-x="1691" d="M102 305q0 61 16.5 116.5t60.5 97.5t120 65.5t193 23.5h239v80q0 86 -47 125t-164 39q-96 0 -181 -19.5t-159 -44.5v193q78 35 172 49t168 14q129 0 210 -25.5t128 -82.5q53 53 127 80.5t184 27.5q135 0 214 -41.5t120 -113.5t53.5 -169t12.5 -208v-88h-627 q4 -51 15.5 -96t37 -80t67.5 -55.5t107 -20.5q98 0 177 16.5t176 57.5v-197q-98 -45 -189.5 -57t-163.5 -12q-111 0 -187.5 29.5t-129.5 82.5l-31 -22q-70 -49 -156.5 -69.5t-164.5 -20.5q-106 0 -181 24.5t-123.5 68.5t-71 103.5t-22.5 128.5zM313 305q0 -27 8.5 -50.5 t29 -41.5t57 -29.5t96.5 -11.5q72 0 137.5 21.5t106.5 56.5l14 8q-10 37 -17.5 81t-11.5 85h-252q-98 0 -133 -33t-35 -86zM942 608h418q-2 49 -9.5 94.5t-26.5 78t-56.5 52t-98.5 19.5q-63 0 -105 -19.5t-66.5 -53.5t-37 -78t-18.5 -93z" />
<glyph unicode="&#xe7;" horiz-adv-x="1003" d="M123 512q0 121 22.5 220t75.5 170t141.5 110t217.5 39q72 0 160.5 -12.5t160.5 -47.5v-194q-76 27 -150.5 43t-170.5 16q-76 0 -123 -27.5t-74 -74.5t-37 -109.5t-10 -132.5t10 -132.5t37 -109.5t74 -74.5t123 -27.5q96 0 170.5 16.5t150.5 42.5v-194q-59 -29 -133 -41 t-139 -17q-20 -31 -22.5 -62.5t44.5 -57.5q51 -29 65.5 -62t8.5 -65.5t-25.5 -60t-37.5 -46.5h-209q20 18 38.5 41t27.5 46.5t6 43t-23 31.5q-37 20 -49.5 46t-9.5 52.5t16.5 52t27.5 46.5q-102 12 -171.5 56t-112.5 112.5t-61.5 160.5t-18.5 203z" />
<glyph unicode="&#xe8;" horiz-adv-x="1110" d="M123 512q0 121 22.5 220t75.5 170t141.5 110t217.5 39q135 0 214.5 -44t123 -118t56.5 -172.5t13 -204.5v-98h-647q6 -53 21.5 -98.5t43 -78t70.5 -51t105 -18.5q49 0 92 4t85 12.5t85 22.5t90 35v-199q-98 -45 -188.5 -57.5t-163.5 -12.5q-129 0 -217.5 39t-141.5 110 t-75.5 170t-22.5 220zM225 1536h248l164 -358h-115zM338 596h432q0 51 -6 98t-26.5 83t-57.5 57.5t-100 21.5q-66 0 -110 -19.5t-71.5 -55.5t-41 -83t-19.5 -102z" />
<glyph unicode="&#xe9;" horiz-adv-x="1110" d="M123 512q0 121 22.5 220t75.5 170t141.5 110t217.5 39q135 0 214.5 -44t123 -118t56.5 -172.5t13 -204.5v-98h-647q6 -53 21.5 -98.5t43 -78t70.5 -51t105 -18.5q49 0 92 4t85 12.5t85 22.5t90 35v-199q-98 -45 -188.5 -57.5t-163.5 -12.5q-129 0 -217.5 39t-141.5 110 t-75.5 170t-22.5 220zM338 596h432q0 51 -6 98t-26.5 83t-57.5 57.5t-100 21.5q-66 0 -110 -19.5t-71.5 -55.5t-41 -83t-19.5 -102zM522 1178l164 358h248l-297 -358h-115z" />
<glyph unicode="&#xea;" horiz-adv-x="1110" d="M123 512q0 121 22.5 220t75.5 170t141.5 110t217.5 39q135 0 214.5 -44t123 -118t56.5 -172.5t13 -204.5v-98h-647q6 -53 21.5 -98.5t43 -78t70.5 -51t105 -18.5q49 0 92 4t85 12.5t85 22.5t90 35v-199q-98 -45 -188.5 -57.5t-163.5 -12.5q-129 0 -217.5 39t-141.5 110 t-75.5 170t-22.5 220zM215 1178l256 358h217l256 -358h-115l-249 215l-250 -215h-115zM338 596h432q0 51 -6 98t-26.5 83t-57.5 57.5t-100 21.5q-66 0 -110 -19.5t-71.5 -55.5t-41 -83t-19.5 -102z" />
<glyph unicode="&#xeb;" horiz-adv-x="1110" d="M123 512q0 121 22.5 220t75.5 170t141.5 110t217.5 39q135 0 214.5 -44t123 -118t56.5 -172.5t13 -204.5v-98h-647q6 -53 21.5 -98.5t43 -78t70.5 -51t105 -18.5q49 0 92 4t85 12.5t85 22.5t90 35v-199q-98 -45 -188.5 -57.5t-163.5 -12.5q-129 0 -217.5 39t-141.5 110 t-75.5 170t-22.5 220zM211 1366q0 59 42 101t101 42t101.5 -42t42.5 -101t-42 -101t-102 -42q-59 0 -101 42t-42 101zM338 596h432q0 51 -6 98t-26.5 83t-57.5 57.5t-100 21.5q-66 0 -110 -19.5t-71.5 -55.5t-41 -83t-19.5 -102zM662 1366q0 59 41.5 101t101.5 42 q59 0 101 -42t42 -101t-42 -101t-101 -42t-101 42t-42 101z" />
<glyph unicode="&#xec;" horiz-adv-x="563" d="M-84 1536h248l164 -358h-115zM166 221v803h207v-809q0 -29 17.5 -38t62.5 -9v-195h-39q-123 0 -185.5 55.5t-62.5 192.5z" />
<glyph unicode="&#xed;" horiz-adv-x="563" d="M166 221v803h207v-809q0 -29 17.5 -38t62.5 -9v-195h-39q-123 0 -185.5 55.5t-62.5 192.5zM213 1178l164 358h248l-297 -358h-115z" />
<glyph unicode="&#xee;" horiz-adv-x="563" d="M-94 1178l256 358h217l256 -358h-115l-250 215l-250 -215h-114zM166 221v803h207v-809q0 -29 17.5 -38t62.5 -9v-195h-39q-123 0 -185.5 55.5t-62.5 192.5z" />
<glyph unicode="&#xef;" horiz-adv-x="563" d="M-98 1366q0 59 42 101t101 42t101 -42t42 -101t-42 -101t-101 -42t-101 42t-42 101zM166 221v803h207v-809q0 -29 17.5 -38t62.5 -9v-195h-39q-123 0 -185.5 55.5t-62.5 192.5zM352 1366q0 59 42 101t102 42q59 0 101 -42t42 -101t-42 -101t-101 -42t-101.5 42t-42.5 101 z" />
<glyph unicode="&#xf0;" horiz-adv-x="1114" d="M113 512q0 119 17 218t66.5 171t135.5 111t225 39q61 0 117 -19q-25 49 -54.5 92t-64.5 84l-291 -147v172l178 90q-80 72 -161.5 124t-147.5 89h318q33 -20 76.5 -50t90.5 -73l240 123v-172l-127 -66q51 -59 98.5 -136t84 -170t60 -205.5t25.5 -245.5q2 -10 2 -29 q0 -121 -17 -219t-65.5 -170t-135.5 -111t-226 -39t-225 39t-135.5 111t-66.5 170t-17 219zM322 512q0 -74 6 -136.5t29.5 -108.5t70.5 -72.5t129 -26.5q80 0 127 26.5t71.5 72.5t31 108.5t6.5 136.5t-6.5 136.5t-31 108.5t-71.5 72.5t-127 26.5q-82 0 -129 -26.5 t-70.5 -72.5t-29.5 -108.5t-6 -136.5z" />
<glyph unicode="&#xf1;" horiz-adv-x="1101" d="M143 0v1024h142l20 -57q63 41 138 62.5t149 21.5q190 0 283.5 -87t93.5 -243v-721h-211v725q0 72 -47 101.5t-119 29.5q-78 0 -137.5 -14.5t-100.5 -34.5v-807h-211zM178 1231q4 147 65.5 216t190.5 66q63 -2 102 -22.5t68 -44t54.5 -43t62.5 -19.5q31 0 49 10.5t27.5 27 t12.5 36t3 39.5l164 -14q-2 -287 -256 -281q-63 0 -102 20.5t-68 44t-54.5 43t-62.5 19.5q-31 0 -49 -10t-27.5 -25.5t-12.5 -36t-3 -40.5z" />
<glyph unicode="&#xf2;" horiz-adv-x="1134" d="M123 512q0 119 17.5 218t66.5 171t135 111t225 39t226.5 -39t135.5 -111t65.5 -171t17.5 -218q0 -121 -17.5 -219t-65.5 -170t-135 -111t-227 -39q-139 0 -225 39t-135 111t-66.5 170t-17.5 219zM213 1536h248l164 -358h-115zM332 512q0 -74 6 -136.5t29.5 -108.5 t70.5 -72.5t129 -26.5q80 0 127 26.5t72 72.5t31 108.5t6 136.5t-6 136.5t-31 108.5t-72 72.5t-127 26.5q-82 0 -129 -26.5t-70.5 -72.5t-29.5 -108.5t-6 -136.5z" />
<glyph unicode="&#xf3;" horiz-adv-x="1134" d="M123 512q0 119 17.5 218t66.5 171t135 111t225 39t226.5 -39t135.5 -111t65.5 -171t17.5 -218q0 -121 -17.5 -219t-65.5 -170t-135 -111t-227 -39q-139 0 -225 39t-135 111t-66.5 170t-17.5 219zM332 512q0 -74 6 -136.5t29.5 -108.5t70.5 -72.5t129 -26.5q80 0 127 26.5 t72 72.5t31 108.5t6 136.5t-6 136.5t-31 108.5t-72 72.5t-127 26.5q-82 0 -129 -26.5t-70.5 -72.5t-29.5 -108.5t-6 -136.5zM510 1178l164 358h248l-297 -358h-115z" />
<glyph unicode="&#xf4;" horiz-adv-x="1134" d="M123 512q0 119 17.5 218t66.5 171t135 111t225 39t226.5 -39t135.5 -111t65.5 -171t17.5 -218q0 -121 -17.5 -219t-65.5 -170t-135 -111t-227 -39q-139 0 -225 39t-135 111t-66.5 170t-17.5 219zM203 1178l256 358h217l256 -358h-115l-250 215l-250 -215h-114zM332 512 q0 -74 6 -136.5t29.5 -108.5t70.5 -72.5t129 -26.5q80 0 127 26.5t72 72.5t31 108.5t6 136.5t-6 136.5t-31 108.5t-72 72.5t-127 26.5q-82 0 -129 -26.5t-70.5 -72.5t-29.5 -108.5t-6 -136.5z" />
<glyph unicode="&#xf5;" horiz-adv-x="1134" d="M123 512q0 119 17.5 218t66.5 171t135 111t225 39t226.5 -39t135.5 -111t65.5 -171t17.5 -218q0 -121 -17.5 -219t-65.5 -170t-135 -111t-227 -39q-139 0 -225 39t-135 111t-66.5 170t-17.5 219zM168 1231q4 147 65.5 216t190.5 66q63 -2 102 -22.5t68 -44t54.5 -43 t62.5 -19.5q31 0 49 10.5t27.5 27t12.5 36t3 39.5l164 -14q-2 -287 -256 -281q-63 0 -102.5 20.5t-68 44t-54 43t-62.5 19.5q-31 0 -49.5 -10t-27.5 -25.5t-12 -36t-3 -40.5zM332 512q0 -74 6 -136.5t29.5 -108.5t70.5 -72.5t129 -26.5q80 0 127 26.5t72 72.5t31 108.5 t6 136.5t-6 136.5t-31 108.5t-72 72.5t-127 26.5q-82 0 -129 -26.5t-70.5 -72.5t-29.5 -108.5t-6 -136.5z" />
<glyph unicode="&#xf6;" horiz-adv-x="1134" d="M123 512q0 119 17.5 218t66.5 171t135 111t225 39t226.5 -39t135.5 -111t65.5 -171t17.5 -218q0 -121 -17.5 -219t-65.5 -170t-135 -111t-227 -39q-139 0 -225 39t-135 111t-66.5 170t-17.5 219zM199 1366q0 59 42 101t101 42t101 -42t42 -101t-42 -101t-101 -42t-101 42 t-42 101zM332 512q0 -74 6 -136.5t29.5 -108.5t70.5 -72.5t129 -26.5q80 0 127 26.5t72 72.5t31 108.5t6 136.5t-6 136.5t-31 108.5t-72 72.5t-127 26.5q-82 0 -129 -26.5t-70.5 -72.5t-29.5 -108.5t-6 -136.5zM649 1366q0 59 42 101t102 42q59 0 101 -42t42 -101t-42 -101 t-101 -42t-101.5 42t-42.5 101z" />
<glyph unicode="&#xf7;" horiz-adv-x="1064" d="M123 598v201h819v-201h-819zM389 385q0 59 42 101t101 42t101.5 -42t42.5 -101t-42 -101t-102 -42q-59 0 -101 42t-42 101zM389 1012q0 59 42 101t101 42t101.5 -42t42.5 -101t-42 -101.5t-102 -42.5q-59 0 -101 42.5t-42 101.5z" />
<glyph unicode="&#xf8;" horiz-adv-x="1146" d="M92 0l101 143q-41 72 -55.5 164t-14.5 205q0 119 17.5 218t66.5 171t135 111t225 39q137 0 230 -41l10 14h248l-109 -154q37 -70 51.5 -159.5t14.5 -198.5q0 -121 -17.5 -219t-65.5 -170t-135 -111t-227 -39q-133 0 -221 37l-6 -10h-248zM332 512q0 -43 1 -83t7 -75 l336 484q-23 8 -49.5 13t-59.5 5q-82 0 -129 -26.5t-70.5 -72.5t-29.5 -108.5t-6 -136.5zM467 182q37 -14 100 -14q80 0 127 26.5t72 72.5t31 108.5t6 136.5q0 37 -2 73t-6 68z" />
<glyph unicode="&#xf9;" horiz-adv-x="1101" d="M133 303v721h211v-725q0 -72 47 -101.5t119 -29.5q78 0 137.5 14.5t100.5 34.5v807h210v-1024h-141l-20 57q-63 -41 -138 -62.5t-149 -21.5q-190 0 -283.5 87t-93.5 243zM193 1536h247l164 -358h-115z" />
<glyph unicode="&#xfa;" horiz-adv-x="1101" d="M133 303v721h211v-725q0 -72 47 -101.5t119 -29.5q78 0 137.5 14.5t100.5 34.5v807h210v-1024h-141l-20 57q-63 -41 -138 -62.5t-149 -21.5q-190 0 -283.5 87t-93.5 243zM489 1178l164 358h248l-297 -358h-115z" />
<glyph unicode="&#xfb;" horiz-adv-x="1101" d="M133 303v721h211v-725q0 -72 47 -101.5t119 -29.5q78 0 137.5 14.5t100.5 34.5v807h210v-1024h-141l-20 57q-63 -41 -138 -62.5t-149 -21.5q-190 0 -283.5 87t-93.5 243zM182 1178l256 358h217l256 -358h-114l-250 215l-250 -215h-115z" />
<glyph unicode="&#xfc;" horiz-adv-x="1101" d="M133 303v721h211v-725q0 -72 47 -101.5t119 -29.5q78 0 137.5 14.5t100.5 34.5v807h210v-1024h-141l-20 57q-63 -41 -138 -62.5t-149 -21.5q-190 0 -283.5 87t-93.5 243zM178 1366q0 59 42 101t102 42q59 0 101 -42t42 -101t-42 -101t-101 -42t-101.5 42t-42.5 101z M629 1366q0 59 42 101t101 42t101 -42t42 -101t-42 -101t-101 -42t-101 42t-42 101z" />
<glyph unicode="&#xfd;" horiz-adv-x="1054" d="M51 1024h238l239 -739l240 739h236l-590 -1536h-230l246 561zM469 1178l164 358h248l-297 -358h-115z" />
<glyph unicode="&#xfe;" horiz-adv-x="1148" d="M143 -512v2048h207v-545q57 29 113.5 44.5t118.5 15.5q129 0 215 -39t137 -110t71.5 -170t20.5 -220t-20.5 -220t-71.5 -170t-137 -110t-215 -39q-61 0 -115.5 13.5t-116.5 42.5v-541h-207zM350 215q27 -15 76 -27q31 -8 68.5 -14t87.5 -6q76 0 121 27.5t69.5 74.5 t32.5 109.5t8 132.5t-8 132.5t-32.5 109.5t-70 74.5t-120.5 27.5q-76 0 -131.5 -13.5t-100.5 -35.5v-592z" />
<glyph unicode="&#xff;" horiz-adv-x="1054" d="M51 1024h238l239 -739l240 739h236l-590 -1536h-230l246 561zM158 1366q0 59 42 101t101 42t101 -42t42 -101t-42 -101t-101 -42t-101 42t-42 101zM608 1366q0 59 42 101t102 42q59 0 101 -42t42 -101t-42 -101t-101 -42t-101.5 42t-42.5 101z" />
<glyph unicode="&#x152;" horiz-adv-x="1900" d="M143 768q0 164 31 304t105.5 243.5t200.5 162t317 58.5h960v-205h-627v-434h560v-205h-560v-487h627v-205h-960q-190 0 -316.5 58.5t-201 162t-105.5 243.5t-31 304zM371 768q0 -123 20.5 -226.5t68.5 -178t128 -116.5t200 -42h127v1126h-127q-121 0 -200.5 -42 t-127.5 -116.5t-68.5 -178t-20.5 -226.5z" />
<glyph unicode="&#x153;" horiz-adv-x="1789" d="M123 512q0 119 17.5 218t66.5 171t135 111t225 39q129 0 213 -34t135 -97q53 63 137.5 97t207.5 34q135 0 214.5 -44t122.5 -118t56.5 -172.5t13.5 -204.5v-98h-647q6 -53 21.5 -98.5t43 -78t70.5 -51t105 -18.5q49 0 92 4t85 12.5t85 22.5t90 35v-199 q-98 -45 -188.5 -57.5t-163.5 -12.5q-123 0 -207 34t-138 95q-51 -61 -135 -95t-213 -34q-139 0 -225 39t-135 111t-66.5 170t-17.5 219zM332 512q0 -74 6 -136.5t29.5 -108.5t70.5 -72.5t129 -26.5q76 0 123 24.5t71.5 67.5t33 101.5t8.5 125.5v48q0 70 -8.5 128t-33 101 t-71.5 67.5t-123 24.5q-82 0 -129 -26.5t-70.5 -72.5t-29.5 -108.5t-6 -136.5zM1018 596h432q0 51 -6 98t-26.5 83t-57.5 57.5t-100 21.5q-66 0 -110 -19.5t-71.5 -55.5t-41 -83t-19.5 -102z" />
<glyph unicode="&#x178;" horiz-adv-x="1486" d="M82 1536h258l403 -717l404 717h258l-555 -903v-633h-213v633zM375 1878q0 59 42 101t101 42t101.5 -42t42.5 -101t-42 -101t-102 -42q-59 0 -101 42t-42 101zM825 1878q0 59 42 101t102 42q59 0 101 -42t42 -101t-42 -101t-101 -42t-101.5 42t-42.5 101z" />
<glyph unicode="&#x2c6;" horiz-adv-x="1105" d="M209 1178l256 358h217l256 -358h-115l-250 215l-249 -215h-115z" />
<glyph unicode="&#x2dc;" horiz-adv-x="1105" d="M174 1231q4 147 65.5 216t190.5 66q63 -2 102 -22.5t68 -44t54.5 -43t62.5 -19.5q31 0 49 10.5t27.5 27t12.5 36t3 39.5l164 -14q-2 -287 -256 -281q-63 0 -102.5 20.5t-68 44t-54 43t-62.5 19.5q-31 0 -49.5 -10t-27.5 -25.5t-12 -36t-3 -40.5z" />
<glyph unicode="&#x2000;" horiz-adv-x="1037" />
<glyph unicode="&#x2001;" horiz-adv-x="2075" />
<glyph unicode="&#x2002;" horiz-adv-x="1037" />
<glyph unicode="&#x2003;" horiz-adv-x="2075" />
<glyph unicode="&#x2004;" horiz-adv-x="691" />
<glyph unicode="&#x2005;" horiz-adv-x="518" />
<glyph unicode="&#x2006;" horiz-adv-x="345" />
<glyph unicode="&#x2007;" horiz-adv-x="345" />
<glyph unicode="&#x2008;" horiz-adv-x="259" />
<glyph unicode="&#x2009;" horiz-adv-x="415" />
<glyph unicode="&#x200a;" horiz-adv-x="115" />
<glyph unicode="&#x2010;" horiz-adv-x="757" d="M102 598v201h553v-201h-553z" />
<glyph unicode="&#x2011;" horiz-adv-x="757" d="M102 598v201h553v-201h-553z" />
<glyph unicode="&#x2012;" horiz-adv-x="757" d="M102 598v201h553v-201h-553z" />
<glyph unicode="&#x2013;" horiz-adv-x="1024" d="M123 598v201h778v-201h-778z" />
<glyph unicode="&#x2014;" horiz-adv-x="2048" d="M123 598v201h1802v-201h-1802z" />
<glyph unicode="&#x2018;" horiz-adv-x="389" d="M-4 1024q4 119 37 214t73 161q47 78 105 137h100q-27 -61 -45 -141q-16 -68 -23 -161t9 -210h-256z" />
<glyph unicode="&#x2019;" horiz-adv-x="389" d="M78 1024q27 61 45 141q16 68 23.5 161t-9.5 210h256q-4 -121 -36.5 -215t-73.5 -160q-47 -78 -105 -137h-100z" />
<glyph unicode="&#x201a;" horiz-adv-x="389" d="M78 -328q27 61 45 142q16 68 23.5 161t-9.5 209h256q-4 -121 -36.5 -215t-73.5 -159q-47 -78 -105 -138h-100z" />
<glyph unicode="&#x201c;" horiz-adv-x="757" d="M-4 1024q4 119 37 214t73 161q47 78 105 137h100q-27 -61 -45 -141q-16 -68 -23 -161t9 -210h-256zM365 1024q4 119 36.5 214t73.5 161q47 78 105 137h100q-27 -61 -45 -141q-16 -68 -23.5 -161t9.5 -210h-256z" />
<glyph unicode="&#x201d;" horiz-adv-x="757" d="M78 1024q27 61 45 141q16 68 23.5 161t-9.5 210h256q-4 -121 -36.5 -215t-73.5 -160q-47 -78 -105 -137h-100zM446 1024q27 61 46 141q16 68 23 161t-9 210h256q-4 -121 -37 -215t-74 -160q-47 -78 -104 -137h-101z" />
<glyph unicode="&#x201e;" horiz-adv-x="757" d="M78 -328q27 61 45 142q16 68 23.5 161t-9.5 209h256q-4 -121 -36.5 -215t-73.5 -159q-47 -78 -105 -138h-100zM446 -328q27 61 46 142q16 68 23 161t-9 209h256q-4 -121 -37 -215t-74 -159q-47 -78 -104 -138h-101z" />
<glyph unicode="&#x2022;" horiz-adv-x="819" d="M133 768q0 57 21.5 107.5t59.5 88t88 59t108 21.5q57 0 107 -21.5t88 -59t59.5 -88t21.5 -107.5t-21.5 -107.5t-59.5 -88t-88 -59t-107 -21.5t-107.5 21.5t-88.5 59t-59.5 88t-21.5 107.5z" />
<glyph unicode="&#x2026;" horiz-adv-x="2027" d="M195 117q0 59 42 101t101 42t101 -42t42 -101t-42 -101.5t-101 -42.5t-101 42.5t-42 101.5zM870 117q0 59 42 101t102 42q59 0 101 -42t42 -101t-42 -101.5t-101 -42.5t-101.5 42.5t-42.5 101.5zM1546 117q0 59 42 101t102 42q59 0 101 -42t42 -101t-42 -101.5 t-101 -42.5t-101.5 42.5t-42.5 101.5z" />
<glyph unicode="&#x202f;" horiz-adv-x="415" />
<glyph unicode="&#x2039;" horiz-adv-x="624" d="M113 418v188l389 287v-178l-219 -203l219 -203v-180z" />
<glyph unicode="&#x203a;" horiz-adv-x="624" d="M123 129v180l219 203l-219 203v178l389 -287v-188z" />
<glyph unicode="&#x205f;" horiz-adv-x="518" />
<glyph unicode="&#x20ac;" horiz-adv-x="1118" d="M72 512v203h112v106h-112v203h125q14 131 49 232.5t98.5 169t159.5 102.5t233 35q72 0 157 -10.5t165 -45.5v-198q-76 25 -150.5 39t-171.5 14q-152 0 -225.5 -85t-95.5 -253h532l-67 -203h-480v-106h445l-68 -203h-362q23 -170 96.5 -254t224.5 -84q96 0 171 14.5 t151 38.5v-198q-80 -35 -165 -45.5t-157 -10.5q-137 0 -233 35t-159.5 102.5t-98.5 168t-49 233.5h-125z" />
<glyph unicode="&#x2122;" horiz-adv-x="1177" d="M51 1442v94h420v-94h-156v-418h-106v418h-158zM535 1024v512h112l152 -319l155 319h111v-512h-98l4 324l-131 -263h-78l-131 263l4 -324h-100z" />
<glyph unicode="&#xe000;" horiz-adv-x="1024" d="M0 0v1024h1024v-1024h-1024z" />
</font>
</defs>
</svg>
