<?xml version="1.0" standalone="no"?>
<!DOCTYPE svg PUBLIC "-//W3C//DTD SVG 1.1//EN" "http://www.w3.org/Graphics/SVG/1.1/DTD/svg11.dtd" >
<svg xmlns="http://www.w3.org/2000/svg">
<metadata></metadata>
<defs>
<font id="apex_sans_bookregular" horiz-adv-x="1228" >
<font-face units-per-em="2048" ascent="1536" descent="-512" />
<missing-glyph horiz-adv-x="409" />
<glyph unicode="&#xfb01;" horiz-adv-x="1386" d="M76 911v64l205 59v215q0 147 88 227t280 80q33 0 73 -3t71 -11v-129q-31 8 -64 12.5t-80 4.5q-100 0 -165.5 -40t-65.5 -141v-225h323v-113h-323v-911h-137v911h-205zM987 1403q0 47 33 80t80 33t79.5 -33t32.5 -80t-32.5 -80t-79.5 -33t-80 33t-33 80zM1030 205v819h139 v-836q0 -53 19.5 -72.5t66.5 -19.5v-116q-111 0 -168 51t-57 174z" />
<glyph unicode="&#xfb02;" horiz-adv-x="1386" d="M76 911v64l205 59v215q0 147 88 227t280 80q33 0 73 -3t71 -11v-129q-31 8 -64 12.5t-80 4.5q-100 0 -165.5 -40t-65.5 -141v-225h323v-113h-323v-911h-137v911h-205zM1030 205v1331h139v-1348q0 -53 19.5 -72.5t66.5 -19.5v-116q-111 0 -168 51t-57 174z" />
<glyph horiz-adv-x="2048" />
<glyph horiz-adv-x="2048" />
<glyph unicode="&#xd;" horiz-adv-x="2048" />
<glyph unicode=" "  horiz-adv-x="409" />
<glyph unicode="&#x09;" horiz-adv-x="409" />
<glyph unicode="&#xa0;" horiz-adv-x="409" />
<glyph unicode="!" horiz-adv-x="450" d="M113 92q0 47 32.5 80t79.5 33t80 -33t33 -80t-33 -79.5t-80 -32.5t-79.5 32.5t-32.5 79.5zM113 1536h225l-72 -1106h-82z" />
<glyph unicode="&#x22;" horiz-adv-x="737" d="M123 1536h205l-64 -512h-78zM410 1536h204l-63 -512h-78z" />
<glyph unicode="#" horiz-adv-x="1198" d="M31 770l41 135h184l92 240h-174l41 135h184l99 256h137l-98 -256h309l98 256h137l-98 -256h184l-41 -135h-194l-92 -240h184l-41 -135h-195l-98 -258h-137l98 258h-309l-98 -258h-138l99 258h-174zM393 905h309l93 240h-310z" />
<glyph unicode="$" d="M133 989q0 168 133 239.5t371 71.5h28.5t32.5 -2l80 238h154l-94 -248q59 -8 115.5 -18t90.5 -27v-119q-31 10 -77.5 19.5t-102 17.5t-115 12.5t-114.5 4.5q-84 0 -151.5 -7.5t-117 -29t-76 -58.5t-26.5 -94q0 -47 26.5 -73.5t74 -40t114 -19.5t144.5 -12 q115 -10 202.5 -24.5t148 -45.5t91.5 -82t31 -137q0 -160 -134.5 -239.5t-390.5 -79.5h-41l-79 -236h-154l94 248q-74 10 -141.5 22.5t-95.5 26.5v119q23 -10 69.5 -19.5t105 -18.5t122 -14.5t122.5 -5.5q86 0 158 9.5t123 33t79 60.5t28 92q0 51 -25 82t-70 49t-109.5 26.5 t-144.5 14.5q-117 10 -207 23.5t-150 41t-91 74.5t-31 125z" />
<glyph unicode="%" horiz-adv-x="1894" d="M133 1157q0 199 82 299t268 100t268.5 -100t82.5 -299t-82.5 -299t-268.5 -100t-268 100t-82 299zM264 1157q0 -152 51 -214t168 -62t168 62.5t51 213.5q0 152 -51 214.5t-168 62.5t-168 -62.5t-51 -214.5zM326 0l1085 1536h158l-1086 -1536h-157zM1061 379q0 199 82 299 t268 100t268 -100t82 -299t-82 -299t-268 -100t-268 100t-82 299zM1192 379q0 -152 51 -214.5t168 -62.5t168 62.5t51 214.5t-51 214t-168 62t-168 -62.5t-51 -213.5z" />
<glyph unicode="&#x26;" horiz-adv-x="1505" d="M113 461q0 76 21.5 139.5t58 114.5t85 89t101.5 62q-43 160 -43 312q0 61 17.5 128.5t59.5 123t111.5 91t171.5 35.5q92 0 151.5 -19t94.5 -53t48.5 -80t13.5 -97q0 -25 -6.5 -51.5t-14.5 -47.5h-127q6 18 10 42t4 57q0 23 -6 45t-24.5 39.5t-52 28t-91.5 10.5 q-68 0 -110.5 -24t-67 -60.5t-33 -81.5t-8.5 -86q0 -102 31 -238.5t98.5 -275t173 -262t254.5 -199.5q90 57 147.5 150t57.5 231q0 88 -19.5 147.5t-53 96t-81 53t-102.5 16.5q-43 0 -77 -2t-61.5 -6t-53 -11.5t-54.5 -15.5v123q78 25 131.5 32t114.5 7q86 0 158.5 -25.5 t127 -80t84 -137.5t29.5 -197q0 -147 -56 -255t-148 -184q106 -31 235 -30v-135q-207 0 -381 75q-84 -39 -172 -57t-174 -18q-123 0 -228.5 26.5t-182 83.5t-119.5 149.5t-43 221.5zM256 461q0 -94 31.5 -161t89 -110t136.5 -63.5t173 -20.5q47 0 97.5 6.5t99.5 20.5 q-166 109 -282 268.5t-181 335.5q-66 -35 -115 -99.5t-49 -176.5z" />
<glyph unicode="'" horiz-adv-x="450" d="M123 1536h205l-64 -512h-78z" />
<glyph unicode="(" horiz-adv-x="634" d="M133 625q0 195 25.5 360.5t63.5 298.5t83 231.5t84 155.5h154q-39 -57 -84 -155.5t-84 -231.5t-64.5 -299t-25.5 -360q0 -195 25.5 -361t64.5 -299t84 -231.5t84 -155.5h-154q-39 57 -84 155.5t-83 231.5t-63.5 299t-25.5 361z" />
<glyph unicode=")" horiz-adv-x="634" d="M92 -422q39 57 84 155.5t84 231.5t64.5 299t25.5 361t-25.5 360.5t-64.5 298.5t-84 231.5t-84 155.5h154q39 -57 84 -155.5t83 -231.5t63.5 -299t25.5 -360q0 -195 -25.5 -361t-63.5 -299t-83 -231.5t-84 -155.5h-154z" />
<glyph unicode="*" horiz-adv-x="788" d="M18 1204l50 150l262 -123l-23 -76zM117 913l198 213l66 -45l-139 -262zM315 1536h160l-41 -289h-78zM410 1081l65 45l203 -215l-129 -88zM461 1231l264 125l45 -152l-287 -49z" />
<glyph unicode="+" horiz-adv-x="1064" d="M123 631v135h342v342h135v-342h342v-135h-342v-342h-135v342h-342z" />
<glyph unicode="," horiz-adv-x="450" d="M113 92q0 47 32.5 80t79.5 33t80 -33t33 -80q0 -31 -12 -55l-125 -270h-72l51 223q-33 12 -50 39.5t-17 62.5z" />
<glyph unicode="-" horiz-adv-x="757" d="M123 631v135h512v-135h-512z" />
<glyph unicode="." horiz-adv-x="450" d="M113 92q0 47 32.5 80t79.5 33t80 -33t33 -80t-33 -79.5t-80 -32.5t-79.5 32.5t-32.5 79.5z" />
<glyph unicode="/" horiz-adv-x="860" d="M0 -422l711 2093h149l-710 -2093h-150z" />
<glyph unicode="0" d="M143 768q0 180 12.5 325.5t59.5 249t141.5 158.5t257.5 55q166 0 260.5 -55t141.5 -158.5t58 -249t11 -325.5t-11 -325.5t-58 -249t-141.5 -158.5t-260.5 -55q-164 0 -258 55t-141 158.5t-59.5 249t-12.5 325.5zM287 768q0 -147 6 -269t36.5 -209t97.5 -135.5t187 -48.5 q119 0 185.5 48.5t98.5 135.5t38 209t6 269t-6 269t-38 209t-98.5 135.5t-185.5 48.5q-121 0 -187.5 -48.5t-97 -135.5t-36.5 -209t-6 -269z" />
<glyph unicode="1" d="M184 1378v56l430 122h72v-1443h277v-113h-707v113h276v1296z" />
<glyph unicode="2" d="M102 0v94l754 821q41 45 68.5 103.5t27.5 128.5q0 59 -13 110.5t-51 88t-105.5 58t-174.5 21.5q-53 0 -100 -4t-93 -13t-93.5 -24.5t-98.5 -37.5v139q63 29 156.5 50t226.5 21q162 0 258.5 -39.5t148.5 -100t68.5 -133.5t16.5 -136q0 -53 -11.5 -97t-35 -86t-58.5 -86 t-84 -94l-622 -651h811v-133h-996z" />
<glyph unicode="3" d="M133 51v139q104 -45 198.5 -62t203.5 -17q129 0 210.5 26.5t129 70.5t64.5 102.5t17 121.5q0 162 -90 229.5t-280 67.5h-279v135h279q86 0 147.5 24.5t99 64.5t55 89.5t17.5 100.5q0 59 -16.5 110.5t-59.5 90t-118.5 60t-192.5 21.5q-53 0 -100 -4t-93 -13t-93.5 -24.5 t-98.5 -37.5v139q63 29 156.5 50t226.5 21q156 0 260.5 -31.5t167 -88t88 -132t25.5 -161.5q0 -55 -17.5 -107.5t-48 -96.5t-72.5 -79t-92 -53q66 -14 118 -49t88 -85t55.5 -111.5t19.5 -129.5q0 -92 -27.5 -175t-94 -144.5t-177.5 -97t-277 -35.5q-133 0 -234 21.5 t-165 49.5z" />
<glyph unicode="4" d="M113 512v86l696 958h109v-917h219v-127h-219v-512h-140v512h-665zM289 639h489v674z" />
<glyph unicode="5" d="M150 45v127q57 -23 138.5 -44.5t200.5 -21.5q63 0 137 12.5t135.5 52.5t102.5 112.5t41 193.5q0 117 -35.5 179.5t-93 91t-130.5 32.5t-146 4h-287v752h809v-127h-670v-502q47 4 100.5 7.5t94.5 3.5q92 0 183 -13.5t163 -59.5t116 -133t44 -235q0 -166 -55.5 -264 t-139.5 -150.5t-183.5 -67.5t-187.5 -15q-113 0 -198.5 19t-138.5 46z" />
<glyph unicode="6" d="M143 707q0 188 25 344.5t88 268.5t172 174t279 62q150 0 234.5 -23.5t123.5 -45.5v-135q-57 29 -146 51t-212 22q-121 0 -204 -49t-134.5 -136t-73 -209t-21.5 -265q18 35 49 70.5t77 64.5t105.5 47.5t137.5 18.5q158 0 250 -48.5t139 -121t60.5 -159.5t13.5 -165 t-16.5 -165t-65.5 -159.5t-140 -120.5t-241 -48q-166 0 -264 52t-150.5 147t-69 229.5t-16.5 298.5zM295 473q0 -61 13.5 -125.5t50 -119t105 -88.5t179.5 -34q104 0 166.5 38t96.5 93.5t45.5 119t11.5 116.5q0 51 -8.5 115.5t-41 120t-96 93.5t-174.5 38q-109 0 -176.5 -35 t-106 -89t-52 -119t-13.5 -124z" />
<glyph unicode="7" d="M102 1409v127h1024v-98l-710 -1438h-180l747 1409h-881z" />
<glyph unicode="8" d="M96 432q0 57 15.5 116.5t46 111t79 91.5t113.5 58q-100 47 -151.5 134t-51.5 187q0 84 24 161t79 136.5t144 94t220 34.5t220.5 -34.5t144.5 -94t78.5 -136.5t23.5 -161q0 -100 -51 -187t-151 -134q66 -18 113.5 -58t78.5 -91.5t46.5 -111t15.5 -116.5q0 -90 -27 -172 t-88.5 -144.5t-161 -99t-242.5 -36.5t-242.5 36.5t-160.5 99t-88 144.5t-27 172zM248 432q0 -55 16.5 -112.5t58.5 -105.5t112.5 -78t178.5 -30q109 0 179.5 30t112.5 78t58.5 105.5t16.5 112.5q0 156 -93.5 228.5t-273.5 72.5t-273 -72.5t-93 -228.5zM299 1130 q0 -49 16.5 -97t54.5 -87t98 -62.5t146 -23.5t146.5 23.5t98.5 62.5t54.5 87t16.5 97q0 51 -12.5 104.5t-47 96.5t-96 71t-160.5 28q-98 0 -159.5 -28t-96 -71t-47 -96t-12.5 -105z" />
<glyph unicode="9" d="M143 1063q0 78 16.5 165t65.5 159.5t140.5 120.5t240.5 48q166 0 264.5 -52t150.5 -147t68.5 -229.5t16.5 -298.5q0 -188 -24.5 -344.5t-88 -269.5t-173 -174t-277.5 -61q-150 0 -235 23.5t-124 45.5v135q57 -29 146.5 -51t212.5 -22q121 0 203.5 49t133 136t73 208 t22.5 266q-18 -35 -49 -70.5t-77 -64.5t-106.5 -47.5t-136.5 -18.5q-158 0 -250 48.5t-139 121t-60.5 159.5t-13.5 165zM287 1063q0 -53 8 -116.5t41 -119t96.5 -93.5t173.5 -38q109 0 176.5 35t106.5 88t52 119t13 125q0 61 -13 125.5t-50 119t-105.5 88.5t-179.5 34 q-104 0 -167.5 -38t-97.5 -93.5t-44 -120t-10 -115.5z" />
<glyph unicode=":" horiz-adv-x="450" d="M113 92q0 47 32.5 80t79.5 33t80 -33t33 -80t-33 -79.5t-80 -32.5t-79.5 32.5t-32.5 79.5zM113 768q0 47 32.5 80t79.5 33t80 -33t33 -80t-33 -80t-80 -33t-79.5 33t-32.5 80z" />
<glyph unicode=";" horiz-adv-x="450" d="M113 92q0 47 32.5 80t79.5 33t80 -33t33 -80q0 -31 -12 -55l-125 -270h-72l51 223q-33 12 -50 39.5t-17 62.5zM113 768q0 47 32.5 80t79.5 33t80 -33t33 -80t-33 -80t-80 -33t-79.5 33t-32.5 80z" />
<glyph unicode="&#x3c;" horiz-adv-x="747" d="M123 631v135l512 342v-129l-371 -281l371 -280v-129z" />
<glyph unicode="=" horiz-adv-x="1064" d="M123 496v135h819v-135h-819zM123 766v135h819v-135h-819z" />
<glyph unicode="&#x3e;" horiz-adv-x="747" d="M113 289v129l370 280l-370 281v129l512 -342v-135z" />
<glyph unicode="?" horiz-adv-x="1024" d="M82 1378v127q25 10 63.5 19.5t81.5 16.5t88 11t82 4q162 0 260.5 -33.5t152.5 -90t72.5 -130t18.5 -151.5q0 -96 -26.5 -162.5t-75.5 -115t-118 -84t-155 -70.5q-55 -23 -86.5 -49.5t-46 -61.5t-17.5 -78t-3 -100h-84q-12 61 -15.5 119.5t15 112t66.5 98.5t141 80 q51 18 98 39.5t84 54.5t58.5 84t21.5 131q0 63 -13.5 114.5t-52.5 87t-109.5 55t-183.5 19.5q-111 0 -190.5 -15t-126.5 -32zM262 92q0 47 33 80t80 33t79.5 -33t32.5 -80t-32.5 -79.5t-79.5 -32.5t-80 32.5t-33 79.5z" />
<glyph unicode="@" horiz-adv-x="2129" d="M113 512q0 137 14 268t53 247t106.5 213t175 168t258 109.5t355.5 38.5t354.5 -28.5t254 -80.5t170 -128t101.5 -171t49 -206t13 -235q0 -164 -23.5 -295t-86 -222.5t-172 -140.5t-281.5 -49h-80l-31 84q-80 -51 -157.5 -77.5t-161.5 -26.5q-123 0 -205 41.5t-129 113.5 t-66.5 169t-19.5 208t19.5 208t66.5 169t129 113.5t205 41.5q82 0 165 -26.5t154 -79.5l31 86h80v-897q125 0 206 39t126 112.5t62.5 181t17.5 247.5q0 109 -9.5 204t-37 174.5t-80.5 142t-141.5 106.5t-216.5 67.5t-306 23.5t-308 -34.5t-220 -96t-145.5 -146.5t-86 -186.5 t-41 -216t-10.5 -233.5t10.5 -233.5t41 -216t86 -186.5t145.5 -146.5t220 -96t308 -34.5q180 0 307 23.5t215 66.5l2 -148q-98 -35 -227 -54t-297 -19q-205 0 -355.5 38.5t-258 109.5t-175 168t-106.5 213t-53 247t-14 268zM748 512q0 -76 8 -148.5t37.5 -130t84 -92.5 t146.5 -35q108 1 176 21q29 8 56.5 19.5t54.5 25.5v680q-63 35 -126 50.5t-161 15.5q-92 0 -146.5 -35t-84 -92.5t-37.5 -130t-8 -148.5z" />
<glyph unicode="A" horiz-adv-x="1372" d="M92 0l543 1556h102l543 -1556h-160l-141 430h-586l-141 -430h-160zM434 557h504l-252 768z" />
<glyph unicode="B" horiz-adv-x="1320" d="M184 0v1536h486q135 0 226 -31.5t146.5 -87t80 -129.5t24.5 -158q0 -100 -54.5 -190t-154.5 -133q66 -18 115 -55t80.5 -88.5t48 -110.5t16.5 -121q0 -90 -26.5 -169t-87 -137t-159 -92t-241.5 -34h-500zM330 135h362q109 0 176.5 25.5t104.5 67.5t50 95.5t13 108.5 q0 156 -75.5 226.5t-264.5 70.5h-366v-594zM330 864h366q86 0 142.5 23.5t89.5 60.5t45 85t12 97q0 51 -11 99.5t-44 86.5t-92.5 61.5t-157.5 23.5h-350v-537z" />
<glyph unicode="C" horiz-adv-x="1310" d="M154 768q0 164 29.5 307.5t100 251t186.5 168.5t288 61q141 0 238.5 -21.5t160.5 -49.5v-139q-53 20 -100 35.5t-94.5 25.5t-97.5 14t-107 4q-127 0 -213 -50t-139.5 -139t-77 -209t-23.5 -259t23.5 -259t77 -209t139.5 -139t213 -50q57 0 107 4t97.5 14t94.5 24.5 t100 36.5v-139q-63 -29 -160.5 -50t-238.5 -21q-172 0 -288 61t-186.5 168.5t-100 251t-29.5 307.5z" />
<glyph unicode="D" horiz-adv-x="1402" d="M184 0v1536h418q188 0 313 -58.5t199 -162t104.5 -243.5t30.5 -304t-30.5 -304t-104.5 -243.5t-198.5 -162t-313.5 -58.5h-418zM330 135h280q137 0 230.5 47t148.5 131t79 200t24 255q0 137 -24 254t-79 201t-148 131t-231 47h-280v-1266z" />
<glyph unicode="E" d="M184 0v1536h891v-135h-745v-537h674v-135h-674v-594h745v-135h-891z" />
<glyph unicode="F" horiz-adv-x="1187" d="M184 0v1536h871v-135h-725v-537h653v-135h-653v-729h-146z" />
<glyph unicode="G" horiz-adv-x="1413" d="M154 768q0 164 29.5 307.5t100 251t186.5 168.5t288 61q160 0 263 -26.5t167 -59.5v-141q-59 25 -110.5 43.5t-101.5 29.5t-103.5 17t-114.5 6q-127 0 -213 -50t-139.5 -139t-77 -209t-23.5 -259t23.5 -259t77 -209t139.5 -139t213 -50q43 0 90 2t90 7t81 14t64 22v516 h-315v135h461v-744q-78 -37 -193.5 -60t-277.5 -23q-172 0 -288 61t-186.5 168.5t-100 251t-29.5 307.5z" />
<glyph unicode="H" horiz-adv-x="1413" d="M184 0v1536h146v-672h753v672h146v-1536h-146v729h-753v-729h-146z" />
<glyph unicode="I" horiz-adv-x="604" d="M229 0v1536h146v-1536h-146z" />
<glyph unicode="J" horiz-adv-x="839" d="M102 -6v131q37 -10 67 -13t77 -3q100 0 161.5 36.5t61.5 137.5v1253h145v-1249q0 -147 -88 -227t-280 -80q-33 0 -73 3t-71 11z" />
<glyph unicode="K" horiz-adv-x="1280" d="M184 0v1536h142v-766l632 766h189l-598 -688l659 -848h-190l-559 743l-133 -153v-590h-142z" />
<glyph unicode="L" horiz-adv-x="1146" d="M184 0v1536h146v-1401h704v-135h-850z" />
<glyph unicode="M" horiz-adv-x="1781" d="M184 0v1536h187l520 -1116l520 1116h186v-1536h-139l8 1354l-518 -1118h-114l-519 1118l9 -1354h-140z" />
<glyph unicode="N" horiz-adv-x="1433" d="M184 0v1536h105l825 -1245l-4 1245h139v-1536h-104l-826 1245l5 -1245h-140z" />
<glyph unicode="O" horiz-adv-x="1454" d="M154 768q0 150 19.5 292t79.5 252.5t173 177t301 66.5q190 0 303 -66.5t173.5 -177t78.5 -252.5t18 -292q0 -152 -18 -293t-78.5 -251.5t-173 -177t-303.5 -66.5q-188 0 -301 66.5t-173 177t-79.5 251.5t-19.5 293zM305 768q0 -133 13.5 -253t58.5 -210t128 -142t222 -52 t222 52t128 142t58.5 210t13.5 253t-13.5 253t-58.5 210t-128 142t-222 52t-222 -52t-128 -142t-58.5 -210t-13.5 -253z" />
<glyph unicode="P" horiz-adv-x="1269" d="M184 0v1536h469q143 0 241.5 -38t159 -102.5t87 -147.5t26.5 -173t-26.5 -173t-87 -147.5t-158.5 -102.5t-242 -38h-323v-614h-146zM330 750h332q109 0 176 29.5t104 77.5t50.5 105.5t13.5 112.5t-13.5 112.5t-50.5 105.5t-104.5 78t-175.5 30h-332v-651z" />
<glyph unicode="Q" horiz-adv-x="1454" d="M154 768q0 164 20.5 308.5t81.5 251t174 167.5t297 61q186 0 299 -61t174.5 -167.5t80.5 -251t19 -308.5q0 -143 -12 -269t-54 -224.5t-122 -166t-215 -94.5v-2l588 -118v-148l-946 254q-127 33 -203 107.5t-116 177t-53 226.5t-13 257zM311 768q0 -145 13.5 -265 t57.5 -207t126 -135t219 -48t219 48t126 135t57.5 207t13.5 265q0 143 -13.5 264t-57.5 208t-126 135t-219 48t-219 -48t-126 -135t-57.5 -208t-13.5 -264z" />
<glyph unicode="R" horiz-adv-x="1333" d="M184 0v1536h482q143 0 239 -30.5t154.5 -87t83 -136.5t24.5 -178q0 -154 -62.5 -260.5t-219.5 -147.5l366 -696h-184l-334 674q-16 -2 -33.5 -2h-33.5h-336v-672h-146zM330 807h364q102 0 164 23.5t95.5 63.5t44 94t10.5 116q0 61 -10.5 115.5t-44 94.5t-95 63.5 t-164.5 23.5h-364v-594z" />
<glyph unicode="S" horiz-adv-x="1280" d="M141 61v136q37 -12 79 -27.5t94.5 -28t116 -21.5t142.5 -9q119 0 199 25.5t127 70.5t66.5 105.5t19.5 129.5q0 78 -19.5 128.5t-61.5 81t-108.5 48t-162.5 29.5q-135 16 -229.5 46t-152.5 77t-84 114.5t-26 161.5q0 68 20.5 143t77 138.5t157 105t261.5 41.5 q141 0 238.5 -21.5t161.5 -49.5v-139q-104 45 -196.5 62t-205.5 17q-115 0 -186.5 -23.5t-111.5 -64.5t-55 -95t-15 -116q0 -78 24.5 -125t71.5 -73.5t117.5 -38.5t161.5 -25q113 -14 201.5 -41.5t150 -76t93.5 -122t32 -182.5q0 -78 -24.5 -159.5t-88 -149t-173.5 -110.5 t-282 -43q-53 0 -113.5 7t-118.5 18t-109.5 25.5t-88.5 30.5z" />
<glyph unicode="T" horiz-adv-x="1198" d="M102 1401v135h994v-135h-424v-1401h-146v1401h-424z" />
<glyph unicode="U" horiz-adv-x="1433" d="M174 481v1055h145v-1028q0 -139 43.5 -218t104.5 -118t130 -49t120 -10t119.5 10t130 49t104.5 118t43 218v1028h146v-1055q0 -109 -28 -188.5t-73 -135t-102.5 -90t-117.5 -54t-118.5 -26.5t-103.5 -7q-70 0 -163 17t-178 70.5t-143.5 151.5t-58.5 262z" />
<glyph unicode="V" horiz-adv-x="1372" d="M92 1536h160l434 -1325l434 1325h160l-543 -1556h-102z" />
<glyph unicode="W" horiz-adv-x="1863" d="M92 1536h158l260 -1325l344 1325h156l344 -1325l260 1325h158l-340 -1556h-144l-356 1341l-357 -1341h-143z" />
<glyph unicode="X" horiz-adv-x="1351" d="M82 0l506 778l-496 758h178l406 -657l405 657h179l-496 -758l506 -778h-185l-409 674l-410 -674h-184z" />
<glyph unicode="Y" horiz-adv-x="1433" d="M92 1536h176l449 -772l448 772h176l-553 -901v-635h-143v635z" />
<glyph unicode="Z" horiz-adv-x="1310" d="M113 0v94l856 1307h-815v135h1013v-94l-856 -1307h887v-135h-1085z" />
<glyph unicode="[" horiz-adv-x="532" d="M164 -422v2093h276v-135h-131v-1823h131v-135h-276z" />
<glyph unicode="\" horiz-adv-x="860" d="M0 1671h150l710 -2093h-149z" />
<glyph unicode="]" horiz-adv-x="532" d="M92 -287h131v1823h-131v135h277v-2093h-277v135z" />
<glyph unicode="^" horiz-adv-x="1105" d="M164 1024l342 512h135l342 -512h-129l-281 371l-280 -371h-129z" />
<glyph unicode="_" horiz-adv-x="655" d="M0 -377h655v-135h-655v135z" />
<glyph unicode="`" horiz-adv-x="1105" d="M289 1536h194l164 -358h-61z" />
<glyph unicode="a" horiz-adv-x="1075" d="M133 309q0 57 14.5 110.5t53.5 96.5t109.5 72.5t183.5 40.5l274 16v57q0 55 -11.5 96.5t-39 68t-74.5 39t-119 12.5q-104 0 -176 -15.5t-131 -36.5v123q68 29 151 42t156 13q115 0 189.5 -24.5t119 -70.5t61.5 -109.5t17 -139.5v-700h-80l-30 82q-70 -51 -149 -76.5 t-156 -25.5q-100 0 -170 27.5t-113 72.5t-61.5 104.5t-18.5 124.5zM279 309q0 -35 7 -70.5t30.5 -65.5t66.5 -48.5t117 -18.5q84 0 143 22t125 60v357l-285 -27q-66 -6 -105.5 -25.5t-62 -48t-29.5 -63.5t-7 -72z" />
<glyph unicode="b" horiz-adv-x="1157" d="M164 0v1536h143v-575q66 43 140.5 63t146.5 20q123 0 205 -41.5t129 -113.5t66.5 -169t19.5 -208t-19.5 -208t-66.5 -169t-129 -113.5t-205 -41.5q-84 0 -162 26.5t-158 77.5l-30 -84h-80zM307 172q59 -33 123 -49.5t164 -16.5q92 0 146.5 35t84 92.5t37.5 130t8 148.5 t-8 148.5t-37.5 130t-84 92.5t-146.5 35q-108 -1 -176 -21q-70 -23 -111 -45v-680z" />
<glyph unicode="c" horiz-adv-x="1003" d="M143 512q0 111 18.5 208t68 169t133 113.5t212.5 41.5q76 0 157 -11t149 -40v-123q-59 20 -129 34t-179 14q-96 0 -153.5 -35t-87 -92.5t-37.5 -130t-8 -148.5t8 -148.5t37.5 -130t87 -92.5t153.5 -35q109 0 178.5 13.5t129.5 34.5v-123q-68 -29 -149 -40t-157 -11 q-129 0 -212.5 41.5t-133 113.5t-68 169t-18.5 208z" />
<glyph unicode="d" horiz-adv-x="1157" d="M143 512q0 111 19.5 208t66.5 169t129 113.5t205 41.5q141 0 287 -83v575h143v-1536h-80l-30 84q-80 -51 -158 -77.5t-162 -26.5q-123 0 -205 41.5t-129 113.5t-66.5 169t-19.5 208zM287 512q0 -76 8 -148.5t37.5 -130t84 -92.5t146.5 -35q94 0 157.5 15.5t129.5 50.5 v680q-27 14 -54.5 24.5t-56.5 20.5q-68 20 -176 21q-92 0 -146.5 -35t-84 -92.5t-37.5 -130t-8 -148.5z" />
<glyph unicode="e" horiz-adv-x="1105" d="M143 512q0 111 18.5 208t66.5 169t132 113.5t213 41.5q131 0 208 -41.5t117 -113.5t52.5 -169t12.5 -208v-66h-676q2 -68 15 -129t44 -108t86 -75t141 -28q111 0 187 12.5t151 45.5v-123q-86 -39 -174 -50t-164 -11q-129 0 -213 41.5t-132 113.5t-66.5 169t-18.5 208z M287 563h532q0 68 -5 132.5t-29.5 113.5t-74 79t-137.5 30q-90 0 -144 -30t-85 -79t-43 -112.5t-14 -133.5z" />
<glyph unicode="f" horiz-adv-x="833" d="M76 911v64l205 59v215q0 147 88 227t280 80q33 0 73 -3t71 -11v-129q-31 8 -64 12.5t-80 4.5q-100 0 -165.5 -40t-65.5 -141v-225h323v-113h-323v-911h-137v911h-205z" />
<glyph unicode="g" horiz-adv-x="1105" d="M68 -215q0 51 17 92t46 73t68 55.5t80 41.5v2q-29 20 -47.5 52t-18.5 83q0 43 22.5 78t55.5 62q-92 51 -128 139t-36 196q0 80 18.5 150t64.5 122t123 82.5t193 30.5q47 0 88 -5t76 -15h348v-78l-172 -49q33 -49 46.5 -109.5t13.5 -128.5q0 -80 -18.5 -149.5 t-64.5 -121.5t-123 -83t-194 -31q-78 0 -135 13q-16 -16 -27.5 -37t-11.5 -39q0 -72 78 -80l348 -41q145 -16 213 -77.5t68 -196.5q0 -94 -43 -160t-117 -108t-170 -61t-203 -19q-215 0 -336.5 73.5t-121.5 243.5zM209 -215q0 -57 19.5 -94t59.5 -58.5t99 -30t139 -8.5 q76 0 146.5 10.5t125 35t86 67.5t31.5 109q0 78 -35.5 113.5t-129.5 45.5l-299 35q-49 -12 -92.5 -30.5t-77 -45t-53 -63.5t-19.5 -86zM260 659q0 -51 8 -97t36 -82t80 -57.5t142 -21.5t142.5 21.5t80 57.5t36 82t8.5 97t-8.5 97.5t-36 82t-80 57.5t-142.5 22t-142 -22 t-80 -57.5t-36 -81.5t-8 -98z" />
<glyph unicode="h" horiz-adv-x="1085" d="M164 0v1536h139v-575q66 43 137.5 63t143.5 20q184 0 266 -79.5t82 -227.5v-737h-144v743q0 100 -54 137.5t-150 37.5q-100 0 -162 -16.5t-119 -49.5v-852h-139z" />
<glyph unicode="i" horiz-adv-x="552" d="M154 1403q0 47 32.5 80t79.5 33t80 -33t33 -80t-33 -80t-80 -33t-79.5 33t-32.5 80zM197 205v819h139v-836q0 -53 19.5 -72.5t66.5 -19.5v-116q-111 0 -168 51t-57 174z" />
<glyph unicode="j" horiz-adv-x="532" d="M-66 -412q45 6 92.5 21.5t85.5 43.5t61.5 68.5t23.5 100.5v1202h139v-1221q0 -80 -37 -141t-94.5 -103t-129 -64.5t-141.5 -26.5v120zM154 1403q0 47 32.5 80t79.5 33t80 -33t33 -80t-33 -80t-80 -33t-79.5 33t-32.5 80z" />
<glyph unicode="k" horiz-adv-x="1085" d="M164 0v1536h139v-971l463 459h192l-440 -422l496 -602h-178l-404 520l-129 -123v-397h-139z" />
<glyph unicode="l" horiz-adv-x="552" d="M197 205v1331h139v-1348q0 -53 19.5 -72.5t66.5 -19.5v-116q-111 0 -168 51t-57 174z" />
<glyph unicode="m" horiz-adv-x="1669" d="M164 0v1024h80l30 -84q74 53 151 78.5t148 25.5q207 0 287 -116q80 55 160 85.5t158 30.5q166 0 252 -76.5t86 -230.5v-737h-144v743q0 100 -53 137.5t-141 37.5q-47 0 -85 -4.5t-71 -13.5t-62.5 -21.5t-60.5 -28.5q12 -49 12 -107v-743h-143v743q0 100 -53 137.5 t-142 37.5q-90 0 -148 -15.5t-118 -46.5v-856h-143z" />
<glyph unicode="n" horiz-adv-x="1085" d="M164 0v1024h80l30 -86q143 106 310 106q184 0 266 -79.5t82 -227.5v-737h-144v743q0 100 -54 137.5t-150 37.5q-100 0 -159.5 -16.5t-117.5 -49.5v-852h-143z" />
<glyph unicode="o" horiz-adv-x="1146" d="M143 512q0 117 18.5 215t65.5 169t131 109.5t215 38.5t215 -38.5t132.5 -109.5t66 -169t17.5 -215t-17.5 -215t-66 -169t-132 -109.5t-215.5 -38.5q-131 0 -215 38.5t-131 109.5t-65.5 169t-18.5 215zM287 512q0 -86 7 -161t34.5 -129t85 -85t159.5 -31q100 0 157.5 31 t86.5 85t36 129t7 161t-7 161t-36 129t-86 85t-158 31q-102 0 -159.5 -31t-85 -85t-34.5 -129t-7 -161z" />
<glyph unicode="p" horiz-adv-x="1157" d="M164 -512v1536h80l30 -84q80 51 158 77.5t162 26.5q123 0 205 -41.5t129 -113.5t66.5 -169t19.5 -208t-19.5 -208t-66.5 -169t-129 -113.5t-205 -41.5q-72 0 -146.5 20t-140.5 63v-575h-143zM307 172q41 -22 111 -45q68 -20 176 -21q92 0 146.5 35t84 92.5t37.5 130 t8 148.5t-8 148.5t-37.5 130t-84 92.5t-146.5 35q-100 0 -163.5 -16.5t-123.5 -49.5v-680z" />
<glyph unicode="q" horiz-adv-x="1157" d="M143 512q0 111 19.5 208t66.5 169t129 113.5t205 41.5q82 0 165 -26.5t155 -79.5l30 86h80v-1536h-143v575q-146 -83 -287 -83q-123 0 -205 41.5t-129 113.5t-66.5 169t-19.5 208zM287 512q0 -76 8 -148.5t37.5 -130t84 -92.5t146.5 -35q108 1 176 21q29 8 56.5 19.5 t54.5 25.5v680q-63 35 -125.5 50.5t-161.5 15.5q-92 0 -146.5 -35t-84 -92.5t-37.5 -130t-8 -148.5z" />
<glyph unicode="r" horiz-adv-x="804" d="M164 0v1024h80l30 -86q72 53 158 79.5t172 26.5q35 0 64.5 -3t58.5 -7v-133q-49 16 -123 17q-104 0 -171.5 -16.5t-125.5 -49.5v-852h-143z" />
<glyph unicode="s" horiz-adv-x="1003" d="M137 741q0 55 19.5 109.5t63.5 97.5t118 69.5t182 26.5q72 0 150 -11t145 -40v-123q-59 20 -126.5 34t-170.5 14q-76 0 -124 -13.5t-74.5 -37t-37 -56.5t-10.5 -70q0 -35 9.5 -60.5t34 -44t70.5 -30.5t120 -18q109 -10 179.5 -34t110.5 -60.5t55 -86t15 -112.5 q0 -59 -20.5 -115.5t-68.5 -101.5t-127 -71.5t-195 -26.5q-37 0 -80 4t-85 11t-79 16t-61 20v123q47 -16 121.5 -32t185.5 -16q80 0 132 15.5t82.5 42t43 59.5t12.5 70q0 35 -7 64.5t-31.5 52t-71 38t-121.5 21.5q-111 10 -181.5 33.5t-109.5 59.5t-53.5 81t-14.5 98z" />
<glyph unicode="t" horiz-adv-x="833" d="M76 911v64l205 59v277l143 41v-328h317v-113h-317v-659q6 -94 55 -127t142 -33q20 0 39.5 1t39.5 3v-110q-41 -6 -79 -6q-15 -1 -30 -1q-48 0 -94 10q-61 13 -108 46t-76.5 85t-31.5 128v663h-205z" />
<glyph unicode="u" horiz-adv-x="1085" d="M154 287v737h143v-750q0 -100 54.5 -137t150.5 -37q100 0 159.5 16.5t116.5 49.5v858h144v-1024h-80l-31 86q-143 -106 -309 -106q-184 0 -266 79.5t-82 227.5z" />
<glyph unicode="v" horiz-adv-x="1044" d="M72 1024h157l293 -840l293 840h158l-400 -1044h-102z" />
<glyph unicode="w" horiz-adv-x="1495" d="M72 1024h153l193 -803l254 803h151l254 -803l193 803h153l-288 -1044h-107l-280 890l-281 -890h-107z" />
<glyph unicode="x" horiz-adv-x="1064" d="M72 0l379 526l-359 498h170l270 -401l271 401h170l-359 -498l379 -526h-170l-291 430l-290 -430h-170z" />
<glyph unicode="y" horiz-adv-x="1044" d="M72 1024h164l286 -840l287 840h164l-590 -1536h-154l232 539z" />
<glyph unicode="z" horiz-adv-x="983" d="M92 0v92l600 811h-569v121h747v-92l-600 -811h621v-121h-799z" />
<glyph unicode="{" horiz-adv-x="491" d="M68 557v135h20q47 0 67.5 19.5t18.5 60.5l-37 676q-6 119 58.5 171t173.5 52h30v-135h-30q-90 0 -86 -80l36 -676q2 -47 -15 -87t-46 -68q29 -29 46.5 -69t14.5 -87l-36 -676q-4 -80 86 -80h30v-135h-30q-109 0 -173.5 52.5t-58.5 170.5l37 676q4 74 -76 80h-30z" />
<glyph unicode="|" horiz-adv-x="563" d="M209 -422v2093h145v-2093h-145z" />
<glyph unicode="}" horiz-adv-x="491" d="M92 -287h31q90 0 86 80l-37 676q-2 47 18.5 90t49.5 66q-29 23 -49.5 65.5t-18.5 89.5l37 676q4 80 -86 80h-31v135h31q109 0 173 -52t58 -171l-37 -676q-4 -80 86 -80h21v-135h-31q-80 -6 -76 -80l37 -676q6 -119 -58.5 -171t-172.5 -52h-31v135z" />
<glyph unicode="~" horiz-adv-x="757" d="M72 694v107q39 -29 74.5 -42.5t78.5 -13.5q39 0 69 20.5t60.5 45.5t69.5 45.5t96 20.5q53 0 97.5 -25t68.5 -49v-107q-39 29 -75 42.5t-79 13.5q-39 0 -68.5 -20.5t-60 -45t-69.5 -45t-96 -20.5q-53 0 -97.5 24.5t-68.5 48.5z" />
<glyph unicode="&#xa1;" horiz-adv-x="450" d="M113 -512l71 1106h82l72 -1106h-225zM113 932q0 47 32.5 79.5t79.5 32.5t80 -32.5t33 -79.5t-33 -80t-80 -33t-79.5 33t-32.5 80z" />
<glyph unicode="&#xa2;" d="M143 768q0 131 40 230.5t114 167t178.5 101t233.5 33.5l79 236h154l-94 -246q55 -8 110.5 -21.5t96.5 -29.5v-123q-59 20 -148.5 39t-199.5 19q-195 0 -307.5 -105.5t-112.5 -300.5t112.5 -300.5t307.5 -105.5q111 0 199.5 18.5t148.5 39.5v-123q-35 -14 -79 -25.5 t-91 -19.5t-93.5 -12t-82.5 -4h-33t-33 2l-80 -238h-153l98 258q-172 47 -268.5 174t-96.5 336z" />
<glyph unicode="&#xa3;" d="M84 0v125h164v614h-164v125h164v287q0 88 27.5 161.5t85 128t147.5 85t213 30.5q37 0 89 -5t106.5 -13t104.5 -20.5t85 -26.5v-123q-31 10 -75 20.5t-95 19.5t-106.5 15.5t-108.5 6.5q-176 0 -253 -65t-77 -212v-289h572v-125h-572v-614h756v-125h-1063z" />
<glyph unicode="&#xa4;" d="M123 545v135h123v176h-123v135h131q10 131 41 235.5t90 178.5t152.5 112.5t230.5 38.5q76 0 167 -14t159 -43v-123q-59 20 -137 37t-189 17q-96 0 -162.5 -31t-109.5 -88.5t-66.5 -138t-32.5 -181.5h572l-47 -135h-533v-176h471l-47 -135h-416q8 -100 32 -181t67 -138.5 t109.5 -88.5t162.5 -31q111 0 188.5 16.5t137.5 37.5v-123q-68 -29 -159 -43t-167 -14q-137 0 -230.5 38.5t-152.5 111.5t-90 177.5t-41 237.5h-131z" />
<glyph unicode="&#xa5;" d="M51 1536h174l389 -788l390 788h174l-291 -545h229v-135h-301l-94 -176h395v-135h-430v-545h-143v545h-430v135h395l-94 176h-301v135h229z" />
<glyph unicode="&#xa6;" horiz-adv-x="563" d="M209 -422v979h145v-979h-145zM209 692v977h145v-977h-145z" />
<glyph unicode="&#xa7;" horiz-adv-x="1329" d="M111 559q0 43 9 91t30.5 94.5t57.5 89.5t91 75q-35 41 -50.5 97.5t-15.5 130.5q0 68 20.5 141.5t78 135t159 102t263.5 40.5q141 0 238.5 -21.5t160.5 -49.5v-139q-104 45 -196.5 62t-204.5 17q-115 0 -186.5 -22.5t-113.5 -62.5t-57.5 -92t-15.5 -113q0 -78 25.5 -123 t74.5 -73t119 -43t158 -32q137 -25 226 -54.5t141.5 -74.5t74 -110.5t21.5 -159.5q0 -43 -9.5 -91t-31 -94.5t-57.5 -89.5t-91 -75q66 -84 66 -228q0 -68 -20.5 -141.5t-78 -135t-159 -102t-263.5 -40.5q-141 0 -238 21.5t-161 49.5v139q51 -23 99.5 -38t96.5 -24t98 -13 t108 -4q113 0 185.5 22.5t114.5 62.5t57 92t15 113q0 76 -25.5 122t-74.5 74t-118.5 43t-158.5 32q-137 25 -226 54.5t-141 74.5t-73.5 109.5t-21.5 160.5zM256 557q0 -80 20.5 -125t62.5 -71.5t105.5 -40t151.5 -29.5q102 -18 182 -39t133 -49q92 39 127 108.5t35 155.5 q0 80 -20.5 125t-62.5 70.5t-105.5 40t-151.5 30.5q-104 16 -184 38t-133 50q-92 -39 -126 -108.5t-34 -155.5z" />
<glyph unicode="&#xa8;" horiz-adv-x="1105" d="M256 1403q0 47 33 80t80 33t79.5 -33t32.5 -80t-32.5 -80t-79.5 -33t-80 33t-33 80zM666 1403q0 47 32.5 80t79.5 33t80 -33t33 -80t-33 -80t-80 -33t-79.5 33t-32.5 80z" />
<glyph unicode="&#xa9;" horiz-adv-x="1392" d="M143 512q0 166 44 269.5t119 161.5t173.5 79.5t206.5 21.5q109 0 207 -21.5t173 -79.5t119 -161.5t44 -269.5q0 -164 -44 -268.5t-119 -162.5t-173 -79.5t-207 -21.5t-207 21.5t-173 79.5t-119 162.5t-44 268.5zM281 512q0 -131 30.5 -211t84 -123t128 -57.5t162.5 -14.5 t163 14.5t128 57.5t84 123t31 211t-31 211t-84 123t-128 57.5t-163 14.5t-162.5 -14.5t-128 -57.5t-84 -123t-30.5 -211zM406 512q0 172 72.5 240.5t211.5 68.5q41 0 91 -6t91 -16v-125q-35 10 -84 17t-98 7q-41 0 -69.5 -8t-47 -28.5t-27.5 -56.5t-9 -93t9 -93t27.5 -56.5 t47 -28.5t69.5 -8q49 0 98.5 7t83.5 17v-125q-41 -10 -91 -16t-91 -6q-139 0 -211.5 68.5t-72.5 240.5z" />
<glyph unicode="&#xaa;" horiz-adv-x="757" d="M61 1001q0 106 69 171t216 73l189 10v43q0 72 -35 108t-127 36q-66 0 -125.5 -12.5t-112.5 -30.5v112q57 23 122 34t116 11q88 0 145 -18t90 -53t45.5 -83t12.5 -108v-526h-86l-15 49q-121 -70 -223 -69q-154 0 -217.5 66.5t-63.5 186.5zM195 1001q0 -27 7 -51 t24.5 -43.5t47 -32t72.5 -12.5q47 0 97.5 15.5t91.5 37.5v240l-191 -16q-72 -6 -110.5 -42t-38.5 -96z" />
<glyph unicode="&#xab;" horiz-adv-x="1013" d="M113 444v136l389 286v-155l-248 -199l248 -199v-157zM502 444v136l389 286v-155l-248 -199l248 -199v-157z" />
<glyph unicode="&#xac;" horiz-adv-x="1351" d="M164 0v1024h1024v-1024h-1024z" />
<glyph unicode="&#xad;" horiz-adv-x="757" d="M123 631v135h512v-135h-512z" />
<glyph unicode="&#xae;" horiz-adv-x="704" d="M72 1280q0 86 22.5 140.5t61.5 84t90 40.5t106 11t106.5 -11t90.5 -40.5t61.5 -84t22.5 -140.5t-22.5 -139.5t-61.5 -84t-90 -41.5t-107 -11q-55 0 -106 11t-90 41.5t-61.5 84t-22.5 139.5zM143 1280q0 -68 15.5 -109t43 -64.5t66.5 -30.5t84 -7t84 7t66.5 30.5t43 64.5 t15.5 109t-15.5 109t-43 64.5t-66.5 30.5t-84 7t-84 -7t-66.5 -30.5t-43 -64.5t-15.5 -109zM236 1133v294h131q57 0 79.5 -26.5t22.5 -67.5q0 -63 -43 -84l66 -116h-74l-60 104h-57v-104h-65zM301 1300h61q25 0 31 9.5t6 23.5t-6 23.5t-31 9.5h-61v-66z" />
<glyph unicode="&#xaf;" horiz-adv-x="1232" d="M293 1178v133h561v-133h-561z" />
<glyph unicode="&#xb0;" horiz-adv-x="749" d="M92 1280q0 82 24.5 135t64.5 85t90.5 44t103.5 12q51 0 102 -12t91 -44t64.5 -85t24.5 -135q0 -80 -24.5 -133t-64.5 -85t-91 -45t-102 -13q-53 0 -103.5 13t-90.5 45t-64.5 85t-24.5 133zM213 1280q0 -90 44 -127t118 -37t118 37t44 127t-44 127t-118 37t-118 -37 t-44 -127z" />
<glyph unicode="&#xb1;" horiz-adv-x="1064" d="M123 86v135h819v-135h-819zM123 698v136h342v342h135v-342h342v-136h-342v-342h-135v342h-342z" />
<glyph unicode="&#xb4;" horiz-adv-x="1105" d="M586 1178l164 358h194l-297 -358h-61z" />
<glyph unicode="&#xb5;" horiz-adv-x="1095" d="M164 -512v1536h143v-750q0 -100 54.5 -137t150.5 -37q100 0 159.5 16.5t116.5 49.5v858h144v-1024h-80l-31 86q-143 -106 -309 -106q-66 0 -122 12t-87 35v-539h-139z" />
<glyph unicode="&#xb6;" horiz-adv-x="1269" d="M102 1075q0 90 27 173t87 147.5t158.5 102.5t241.5 38h469v-1536h-145v614h-145v-614h-146v614h-33q-143 0 -241.5 38t-158.5 102.5t-87 147.5t-27 173zM264 1075q0 -55 13.5 -112.5t50.5 -105.5t104.5 -77.5t175.5 -29.5h41v651h-41q-109 0 -176 -30t-104 -78 t-50.5 -105.5t-13.5 -112.5zM795 750h145v651h-145v-651z" />
<glyph unicode="&#xb7;" horiz-adv-x="450" d="M113 768q0 47 32.5 80t79.5 33t80 -33t33 -80t-33 -80t-80 -33t-79.5 33t-32.5 80z" />
<glyph unicode="&#xb8;" horiz-adv-x="1232" d="M468 -104.5q7 30.5 24.5 58.5t31.5 46h92q-14 -18 -25 -36.5t-14.5 -37t5 -37t36.5 -34.5q51 -29 65.5 -62t8.5 -65.5t-25.5 -60t-37.5 -46.5h-156q20 18 38.5 41t28 46.5t6.5 43t-24 31.5q-41 23 -51 52.5t-3 60z" />
<glyph unicode="&#xba;" horiz-adv-x="858" d="M72 1153q0 199 82 301t268 102t275 -102t89 -301t-89 -302t-275 -103t-268 103t-82 302zM199 1153q0 -154 53 -220.5t170 -66.5q121 0 180.5 69t59.5 218q0 150 -59.5 217.5t-180.5 67.5q-117 0 -170 -65.5t-53 -219.5z" />
<glyph unicode="&#xbb;" horiz-adv-x="1013" d="M123 156v157l248 199l-248 199v155l389 -286v-136zM512 156v157l248 199l-248 199v155l389 -286v-136z" />
<glyph unicode="&#xbf;" horiz-adv-x="1024" d="M82 -127q0 96 26.5 162.5t75.5 115t118 84t155 70.5q55 23 86.5 49.5t46 61.5t17.5 78t3 100h84q12 -61 15.5 -119.5t-15 -112t-66.5 -98.5t-141 -80q-51 -18 -98 -39.5t-84 -54.5t-58.5 -84t-21.5 -131q0 -63 13.5 -114.5t52.5 -87t108.5 -55t184.5 -19.5 q111 0 190.5 15t126.5 32v-127q-25 -10 -63.5 -19.5t-81.5 -16.5t-88 -11t-82 -4q-162 0 -260.5 33.5t-152.5 90t-72.5 130t-18.5 151.5zM496 932q0 47 32.5 79.5t79.5 32.5t80 -32.5t33 -79.5t-33 -80t-80 -33t-79.5 33t-32.5 80z" />
<glyph unicode="&#xc0;" horiz-adv-x="1372" d="M92 0l543 1556h102l543 -1556h-160l-141 430h-586l-141 -430h-160zM358 2048h195l164 -358h-62zM434 557h504l-252 768z" />
<glyph unicode="&#xc1;" horiz-adv-x="1372" d="M92 0l543 1556h102l543 -1556h-160l-141 430h-586l-141 -430h-160zM434 557h504l-252 768zM655 1690l164 358h195l-297 -358h-62z" />
<glyph unicode="&#xc2;" horiz-adv-x="1372" d="M92 0l543 1556h102l543 -1556h-160l-141 430h-586l-141 -430h-160zM348 1690l256 358h164l256 -358h-61l-277 237l-276 -237h-62zM434 557h504l-252 768z" />
<glyph unicode="&#xc3;" horiz-adv-x="1372" d="M92 0l543 1556h102l543 -1556h-160l-141 430h-586l-141 -430h-160zM315 1772q-8 109 52.5 167t171.5 58q63 0 102 -21.5t68.5 -46t58.5 -46t72 -21.5q39 0 59.5 11t29.5 26.5t10 34t1 34.5l117 -2q8 -109 -53.5 -167t-172.5 -58q-63 0 -102 21.5t-68.5 46t-58.5 46 t-72 21.5q-39 0 -58 -11.5t-28.5 -26.5t-10.5 -34.5t-1 -34.5zM434 557h504l-252 768z" />
<glyph unicode="&#xc4;" horiz-adv-x="1372" d="M92 0l543 1556h102l543 -1556h-160l-141 430h-586l-141 -430h-160zM369 1915q0 47 32.5 80t79.5 33t80 -33t33 -80t-33 -80t-80 -33t-79.5 33t-32.5 80zM434 557h504l-252 768zM778 1915q0 47 33 80t80 33t80 -33t33 -80t-33 -80t-80 -33t-80 33t-33 80z" />
<glyph unicode="&#xc5;" horiz-adv-x="1372" d="M92 0l543 1556h102l543 -1556h-160l-141 430h-586l-141 -430h-160zM434 557h504l-252 768zM483 1868q0 106 55.5 153t147.5 47t146.5 -47t54.5 -153q0 -104 -54.5 -151.5t-146.5 -47.5t-147.5 47t-55.5 152zM586 1868q0 -55 26.5 -77t73.5 -22t72.5 22t25.5 77 q0 57 -25.5 78.5t-72.5 21.5t-73.5 -21.5t-26.5 -78.5z" />
<glyph unicode="&#xc6;" horiz-adv-x="2088" d="M25 0l1007 1536h924v-135h-746v-537h674v-135h-674v-594h746v-135h-891v729h-403l-467 -729h-170zM748 864h317v496z" />
<glyph unicode="&#xc7;" horiz-adv-x="1269" d="M133 768q0 164 30 307.5t100.5 251t186 168.5t287.5 61q141 0 238.5 -21.5t161.5 -49.5v-139q-53 20 -100.5 35.5t-94.5 25.5t-97 14t-108 4q-127 0 -213 -50t-139 -139t-76.5 -209t-23.5 -259t23.5 -259t76.5 -209t139 -139t213 -50q57 0 107.5 4t97.5 14t94 24.5 t101 36.5v-139q-59 -27 -151.5 -47t-223.5 -24q-23 -31 -26 -64t44 -61q51 -29 65.5 -62t8.5 -65.5t-25.5 -60t-37.5 -46.5h-156q20 18 38.5 41t28 46.5t6.5 43t-24 31.5q-37 20 -49 46t-9 53.5t17 54t29 47.5q-154 12 -256.5 77.5t-166 170t-90 242.5t-26.5 294z" />
<glyph unicode="&#xc8;" d="M184 0v1536h891v-135h-745v-537h674v-135h-674v-594h745v-135h-891zM303 2048h195l164 -358h-62z" />
<glyph unicode="&#xc9;" d="M184 0v1536h891v-135h-745v-537h674v-135h-674v-594h745v-135h-891zM600 1690l164 358h194l-296 -358h-62z" />
<glyph unicode="&#xca;" d="M184 0v1536h891v-135h-745v-537h674v-135h-674v-594h745v-135h-891zM293 1690l256 358h164l256 -358h-62l-276 237l-277 -237h-61z" />
<glyph unicode="&#xcb;" d="M184 0v1536h891v-135h-745v-537h674v-135h-674v-594h745v-135h-891zM313 1915q0 47 33 80t80 33t80 -33t33 -80t-33 -80t-80 -33t-80 33t-33 80zM723 1915q0 47 32.5 80t80.5 33q47 0 79.5 -33t32.5 -80t-32.5 -80t-79.5 -33t-80 33t-33 80z" />
<glyph unicode="&#xcc;" horiz-adv-x="604" d="M-25 2048h195l164 -358h-62zM229 0v1536h146v-1536h-146z" />
<glyph unicode="&#xcd;" horiz-adv-x="604" d="M229 0v1536h146v-1536h-146zM272 1690l164 358h195l-297 -358h-62z" />
<glyph unicode="&#xce;" horiz-adv-x="604" d="M-35 1690l256 358h164l256 -358h-61l-277 237l-276 -237h-62zM229 0v1536h146v-1536h-146z" />
<glyph unicode="&#xcf;" horiz-adv-x="604" d="M-14 1915q0 47 32.5 80t79.5 33t80 -33t33 -80t-33 -80t-80 -33t-79.5 33t-32.5 80zM229 0v1536h146v-1536h-146zM395 1915q0 47 33 80t80 33t80 -33t33 -80t-33 -80t-80 -33t-80 33t-33 80z" />
<glyph unicode="&#xd0;" horiz-adv-x="1464" d="M61 739v113h185v684h418q188 0 313 -58.5t198.5 -162t104.5 -243.5t31 -304t-31 -304t-104.5 -243.5t-198.5 -162t-313 -58.5h-418v739h-185zM391 135h281q137 0 230 47t148.5 131t79 200t23.5 255q0 137 -23.5 254t-79 201t-148.5 131t-230 47h-281v-549h369v-113h-369 v-604z" />
<glyph unicode="&#xd1;" horiz-adv-x="1433" d="M184 0v1536h105l825 -1245l-4 1245h139v-1536h-104l-826 1245l5 -1245h-140zM346 1772q-8 109 52.5 167t170.5 58q63 0 102.5 -21.5t69 -46t58 -46t71.5 -21.5q39 0 59.5 11t30 26.5t10.5 34t1 34.5l116 -2q8 -109 -53 -167t-172 -58q-63 0 -102 21.5t-68.5 46t-58.5 46 t-72 21.5q-39 0 -58.5 -11.5t-28.5 -26.5t-10 -34.5t-1 -34.5z" />
<glyph unicode="&#xd2;" horiz-adv-x="1454" d="M154 768q0 150 19.5 292t79.5 252.5t173 177t301 66.5q190 0 303 -66.5t173.5 -177t78.5 -252.5t18 -292q0 -152 -18 -293t-78.5 -251.5t-173 -177t-303.5 -66.5q-188 0 -301 66.5t-173 177t-79.5 251.5t-19.5 293zM305 768q0 -133 13.5 -253t58.5 -210t128 -142t222 -52 t222 52t128 142t58.5 210t13.5 253t-13.5 253t-58.5 210t-128 142t-222 52t-222 -52t-128 -142t-58.5 -210t-13.5 -253zM399 2048h195l164 -358h-62z" />
<glyph unicode="&#xd3;" horiz-adv-x="1454" d="M154 768q0 150 19.5 292t79.5 252.5t173 177t301 66.5q190 0 303 -66.5t173.5 -177t78.5 -252.5t18 -292q0 -152 -18 -293t-78.5 -251.5t-173 -177t-303.5 -66.5q-188 0 -301 66.5t-173 177t-79.5 251.5t-19.5 293zM305 768q0 -133 13.5 -253t58.5 -210t128 -142t222 -52 t222 52t128 142t58.5 210t13.5 253t-13.5 253t-58.5 210t-128 142t-222 52t-222 -52t-128 -142t-58.5 -210t-13.5 -253zM696 1690l164 358h195l-297 -358h-62z" />
<glyph unicode="&#xd4;" horiz-adv-x="1454" d="M154 768q0 150 19.5 292t79.5 252.5t173 177t301 66.5q190 0 303 -66.5t173.5 -177t78.5 -252.5t18 -292q0 -152 -18 -293t-78.5 -251.5t-173 -177t-303.5 -66.5q-188 0 -301 66.5t-173 177t-79.5 251.5t-19.5 293zM305 768q0 -133 13.5 -253t58.5 -210t128 -142t222 -52 t222 52t128 142t58.5 210t13.5 253t-13.5 253t-58.5 210t-128 142t-222 52t-222 -52t-128 -142t-58.5 -210t-13.5 -253zM389 1690l256 358h164l256 -358h-61l-277 237l-276 -237h-62z" />
<glyph unicode="&#xd5;" horiz-adv-x="1454" d="M154 768q0 150 19.5 292t79.5 252.5t173 177t301 66.5q190 0 303 -66.5t173.5 -177t78.5 -252.5t18 -292q0 -152 -18 -293t-78.5 -251.5t-173 -177t-303.5 -66.5q-188 0 -301 66.5t-173 177t-79.5 251.5t-19.5 293zM305 768q0 -133 13.5 -253t58.5 -210t128 -142t222 -52 t222 52t128 142t58.5 210t13.5 253t-13.5 253t-58.5 210t-128 142t-222 52t-222 -52t-128 -142t-58.5 -210t-13.5 -253zM356 1772q-8 109 52.5 167t171.5 58q63 0 102 -21.5t68.5 -46t58.5 -46t72 -21.5q39 0 59.5 11t29.5 26.5t10 34t1 34.5l117 -2q8 -109 -53.5 -167 t-172.5 -58q-63 0 -102 21.5t-68.5 46t-58.5 46t-72 21.5q-39 0 -58 -11.5t-28.5 -26.5t-10.5 -34.5t-1 -34.5z" />
<glyph unicode="&#xd6;" horiz-adv-x="1454" d="M154 768q0 150 19.5 292t79.5 252.5t173 177t301 66.5q190 0 303 -66.5t173.5 -177t78.5 -252.5t18 -292q0 -152 -18 -293t-78.5 -251.5t-173 -177t-303.5 -66.5q-188 0 -301 66.5t-173 177t-79.5 251.5t-19.5 293zM305 768q0 -133 13.5 -253t58.5 -210t128 -142t222 -52 t222 52t128 142t58.5 210t13.5 253t-13.5 253t-58.5 210t-128 142t-222 52t-222 -52t-128 -142t-58.5 -210t-13.5 -253zM410 1915q0 47 32.5 80t79.5 33t80 -33t33 -80t-33 -80t-80 -33t-79.5 33t-32.5 80zM819 1915q0 47 33 80t80 33t79.5 -33t32.5 -80t-32.5 -80 t-79.5 -33t-80 33t-33 80z" />
<glyph unicode="&#xd7;" horiz-adv-x="1064" d="M195 457l241 241l-241 242l96 96l241 -241l242 241l96 -96l-241 -242l241 -241l-96 -97l-242 242l-241 -242z" />
<glyph unicode="&#xd8;" horiz-adv-x="1413" d="M154 768q0 150 19.5 292t79.5 252.5t173 177t301 66.5q117 0 204 -26.5t150 -73.5l49 80h130l-99 -160q43 -57 71 -126.5t43 -147.5t20 -163t5 -171q0 -152 -18 -293t-78.5 -251.5t-173 -177t-303.5 -66.5q-119 0 -205 26.5t-149 73.5l-49 -80h-129l98 160 q-43 57 -70.5 126.5t-43 147.5t-20.5 163t-5 171zM305 768q0 -135 13.5 -255t60.5 -212l627 1028q-47 47 -116 71.5t-163 24.5q-139 0 -222 -52t-128 -142t-58.5 -210t-13.5 -253zM449 205q47 -45 114.5 -69.5t163.5 -24.5q139 0 222 52t128 142t58.5 210t13.5 253 q0 135 -14.5 255t-59.5 210z" />
<glyph unicode="&#xd9;" horiz-adv-x="1433" d="M174 481v1055h145v-1028q0 -139 43.5 -218t104.5 -118t130 -49t120 -10t119.5 10t130 49t104.5 118t43 218v1028h146v-1055q0 -109 -28 -188.5t-73 -135t-102.5 -90t-117.5 -54t-118.5 -26.5t-103.5 -7q-70 0 -163 17t-178 70.5t-143.5 151.5t-58.5 262zM389 2048h195 l164 -358h-62z" />
<glyph unicode="&#xda;" horiz-adv-x="1433" d="M174 481v1055h145v-1028q0 -139 43.5 -218t104.5 -118t130 -49t120 -10t119.5 10t130 49t104.5 118t43 218v1028h146v-1055q0 -109 -28 -188.5t-73 -135t-102.5 -90t-117.5 -54t-118.5 -26.5t-103.5 -7q-70 0 -163 17t-178 70.5t-143.5 151.5t-58.5 262zM686 1690 l164 358h194l-296 -358h-62z" />
<glyph unicode="&#xdb;" horiz-adv-x="1433" d="M174 481v1055h145v-1028q0 -139 43.5 -218t104.5 -118t130 -49t120 -10t119.5 10t130 49t104.5 118t43 218v1028h146v-1055q0 -109 -28 -188.5t-73 -135t-102.5 -90t-117.5 -54t-118.5 -26.5t-103.5 -7q-70 0 -163 17t-178 70.5t-143.5 151.5t-58.5 262zM379 1690 l256 358h164l256 -358h-62l-276 237l-277 -237h-61z" />
<glyph unicode="&#xdc;" horiz-adv-x="1433" d="M174 481v1055h145v-1028q0 -139 43.5 -218t104.5 -118t130 -49t120 -10t119.5 10t130 49t104.5 118t43 218v1028h146v-1055q0 -109 -28 -188.5t-73 -135t-102.5 -90t-117.5 -54t-118.5 -26.5t-103.5 -7q-70 0 -163 17t-178 70.5t-143.5 151.5t-58.5 262zM399 1915 q0 47 33 80t80 33t80 -33t33 -80t-33 -80t-80 -33t-80 33t-33 80zM809 1915q0 47 32.5 80t80.5 33q47 0 79.5 -33t32.5 -80t-32.5 -80t-79.5 -33t-80 33t-33 80z" />
<glyph unicode="&#xdd;" horiz-adv-x="1433" d="M92 1536h176l449 -772l448 772h176l-553 -901v-635h-143v635zM688 1690l164 358h195l-297 -358h-62z" />
<glyph unicode="&#xde;" d="M164 0v1536h145v-307h324q143 0 241.5 -38t159 -102.5t87 -147.5t26.5 -173t-26.5 -173t-87 -147.5t-159 -102.5t-241.5 -38h-324v-307h-145zM309 442h332q109 0 176.5 30t104 78t50 105.5t13.5 112.5t-13.5 112.5t-50 105.5t-104 78t-176.5 30h-332v-652z" />
<glyph unicode="&#xdf;" horiz-adv-x="1392" d="M203 0v1217q0 74 26.5 135t82 107t140.5 71.5t201 25.5q117 0 203 -25.5t141.5 -71.5t82 -107.5t26.5 -134.5q0 -66 -14.5 -115t-45 -87t-81 -65.5t-123.5 -46.5q-96 -25 -136 -57.5t-40 -104.5q0 -35 10 -59.5t36.5 -42.5t71.5 -30.5t115 -20.5q109 -12 179.5 -36 t110.5 -59.5t55.5 -85t15.5 -112.5q0 -59 -20.5 -115.5t-69 -101.5t-127 -71.5t-195.5 -26.5q-37 0 -80 4t-85 11t-79 16t-61 20v123q47 -16 121.5 -32t185.5 -16q80 0 132 15.5t83 42t43 59.5t12 70q0 35 -7 64.5t-31.5 52t-70.5 38t-122 21.5q-111 10 -181.5 33.5 t-109.5 59.5t-53.5 81t-14.5 98q0 57 12.5 100.5t45.5 77t86 58t137 45.5q53 12 84 32.5t47 47t20.5 56.5t4.5 61q0 90 -77 150.5t-237 60.5t-236.5 -60.5t-76.5 -150.5v-1219h-137z" />
<glyph unicode="&#xe0;" horiz-adv-x="1075" d="M133 309q0 57 14.5 110.5t53.5 96.5t109.5 72.5t183.5 40.5l274 16v57q0 55 -11.5 96.5t-39 68t-74.5 39t-119 12.5q-104 0 -176 -15.5t-131 -36.5v123q68 29 151 42t156 13q115 0 189.5 -24.5t119 -70.5t61.5 -109.5t17 -139.5v-700h-80l-30 82q-70 -51 -149 -76.5 t-156 -25.5q-100 0 -170 27.5t-113 72.5t-61.5 104.5t-18.5 124.5zM197 1536h194l164 -358h-61zM279 309q0 -35 7 -70.5t30.5 -65.5t66.5 -48.5t117 -18.5q84 0 143 22t125 60v357l-285 -27q-66 -6 -105.5 -25.5t-62 -48t-29.5 -63.5t-7 -72z" />
<glyph unicode="&#xe1;" horiz-adv-x="1075" d="M133 309q0 57 14.5 110.5t53.5 96.5t109.5 72.5t183.5 40.5l274 16v57q0 55 -11.5 96.5t-39 68t-74.5 39t-119 12.5q-104 0 -176 -15.5t-131 -36.5v123q68 29 151 42t156 13q115 0 189.5 -24.5t119 -70.5t61.5 -109.5t17 -139.5v-700h-80l-30 82q-70 -51 -149 -76.5 t-156 -25.5q-100 0 -170 27.5t-113 72.5t-61.5 104.5t-18.5 124.5zM279 309q0 -35 7 -70.5t30.5 -65.5t66.5 -48.5t117 -18.5q84 0 143 22t125 60v357l-285 -27q-66 -6 -105.5 -25.5t-62 -48t-29.5 -63.5t-7 -72zM494 1178l163 358h195l-297 -358h-61z" />
<glyph unicode="&#xe2;" horiz-adv-x="1075" d="M133 309q0 57 14.5 110.5t53.5 96.5t109.5 72.5t183.5 40.5l274 16v57q0 55 -11.5 96.5t-39 68t-74.5 39t-119 12.5q-104 0 -176 -15.5t-131 -36.5v123q68 29 151 42t156 13q115 0 189.5 -24.5t119 -70.5t61.5 -109.5t17 -139.5v-700h-80l-30 82q-70 -51 -149 -76.5 t-156 -25.5q-100 0 -170 27.5t-113 72.5t-61.5 104.5t-18.5 124.5zM186 1178l256 358h164l256 -358h-61l-277 237l-276 -237h-62zM279 309q0 -35 7 -70.5t30.5 -65.5t66.5 -48.5t117 -18.5q84 0 143 22t125 60v357l-285 -27q-66 -6 -105.5 -25.5t-62 -48t-29.5 -63.5t-7 -72 z" />
<glyph unicode="&#xe3;" horiz-adv-x="1075" d="M133 309q0 57 14.5 110.5t53.5 96.5t109.5 72.5t183.5 40.5l274 16v57q0 55 -11.5 96.5t-39 68t-74.5 39t-119 12.5q-104 0 -176 -15.5t-131 -36.5v123q68 29 151 42t156 13q115 0 189.5 -24.5t119 -70.5t61.5 -109.5t17 -139.5v-700h-80l-30 82q-70 -51 -149 -76.5 t-156 -25.5q-100 0 -170 27.5t-113 72.5t-61.5 104.5t-18.5 124.5zM166 1260q-8 109 52.5 167t170.5 58q63 0 102 -21.5t69 -46t58.5 -46t71.5 -21.5q39 0 59.5 11t29.5 26.5t10.5 34t1.5 34.5l116 -2q8 -109 -53 -167t-172 -58q-63 0 -102 21.5t-69 46t-58.5 46t-71.5 21.5 q-39 0 -58.5 -11.5t-28.5 -26.5t-10 -34.5t-1 -34.5zM279 309q0 -35 7 -70.5t30.5 -65.5t66.5 -48.5t117 -18.5q84 0 143 22t125 60v357l-285 -27q-66 -6 -105.5 -25.5t-62 -48t-29.5 -63.5t-7 -72z" />
<glyph unicode="&#xe4;" horiz-adv-x="1075" d="M133 309q0 57 14.5 110.5t53.5 96.5t109.5 72.5t183.5 40.5l274 16v57q0 55 -11.5 96.5t-39 68t-74.5 39t-119 12.5q-104 0 -176 -15.5t-131 -36.5v123q68 29 151 42t156 13q115 0 189.5 -24.5t119 -70.5t61.5 -109.5t17 -139.5v-700h-80l-30 82q-70 -51 -149 -76.5 t-156 -25.5q-100 0 -170 27.5t-113 72.5t-61.5 104.5t-18.5 124.5zM207 1403q0 47 32.5 80t79.5 33t80 -33t33 -80t-33 -80t-80 -33t-79.5 33t-32.5 80zM279 309q0 -35 7 -70.5t30.5 -65.5t66.5 -48.5t117 -18.5q84 0 143 22t125 60v357l-285 -27q-66 -6 -105.5 -25.5 t-62 -48t-29.5 -63.5t-7 -72zM616 1403q0 47 33 80t80 33t80 -33t33 -80t-33 -80t-80 -33t-80 33t-33 80z" />
<glyph unicode="&#xe5;" horiz-adv-x="1075" d="M133 309q0 57 14.5 110.5t53.5 96.5t109.5 72.5t183.5 40.5l274 16v57q0 55 -11.5 96.5t-39 68t-74.5 39t-119 12.5q-104 0 -176 -15.5t-131 -36.5v123q68 29 151 42t156 13q115 0 189.5 -24.5t119 -70.5t61.5 -109.5t17 -139.5v-700h-80l-30 82q-70 -51 -149 -76.5 t-156 -25.5q-100 0 -170 27.5t-113 72.5t-61.5 104.5t-18.5 124.5zM279 309q0 -35 7 -70.5t30.5 -65.5t66.5 -48.5t117 -18.5q84 0 143 22t125 60v357l-285 -27q-66 -6 -105.5 -25.5t-62 -48t-29.5 -63.5t-7 -72zM322 1356q0 106 55 153t147 47t146.5 -47t54.5 -153 q0 -104 -54.5 -151.5t-146.5 -47.5t-147 47t-55 152zM424 1356q0 -55 26.5 -77t73.5 -22t73 22t26 77q0 57 -26 78.5t-73 21.5t-73.5 -21.5t-26.5 -78.5z" />
<glyph unicode="&#xe6;" horiz-adv-x="1771" d="M133 289q0 59 16.5 111.5t58.5 91t114.5 61t187.5 22.5h299v127q0 113 -60.5 164.5t-207.5 51.5q-106 0 -185.5 -15.5t-138.5 -36.5v123q68 29 158 42t166 13q147 0 234 -37.5t128 -103.5q49 66 130 103.5t206 37.5q131 0 208 -41.5t117 -113.5t52 -169t12 -208v-53h-676 v-13q2 -68 15.5 -129t44 -108t86 -75t141.5 -28q111 0 186.5 12.5t151.5 45.5v-123q-86 -39 -174 -50t-164 -11q-123 0 -204 36.5t-130 102.5l-63 -49q-70 -51 -157 -70.5t-165 -19.5q-104 0 -177 23.5t-120 65.5t-68.5 98t-21.5 122zM279 289q0 -35 10 -68t37.5 -58.5 t75 -41t122.5 -15.5q86 0 164 26t125 67l35 30q-33 98 -39 228v2h-309q-66 0 -109 -12.5t-67.5 -35t-34.5 -54t-10 -68.5zM952 575h533q0 66 -6 127.5t-31 109.5t-74 77t-135 29q-88 0 -142.5 -29t-85 -76t-44 -108.5t-15.5 -129.5z" />
<glyph unicode="&#xe7;" horiz-adv-x="1003" d="M143 512q0 111 18.5 208t68 169t133 113.5t212.5 41.5q76 0 157 -11t149 -40v-123q-59 20 -129 34t-179 14q-96 0 -153.5 -35t-87 -92.5t-37.5 -130t-8 -148.5t8 -148.5t37.5 -130t87 -92.5t153.5 -35q109 0 178.5 13.5t129.5 34.5v-123q-63 -27 -136 -38t-145 -13 q-23 -31 -26 -64t44 -61q51 -29 65.5 -62t8.5 -65.5t-25.5 -60t-37.5 -46.5h-156q20 18 38.5 41t28 46.5t6.5 43t-24 31.5q-37 20 -49 46t-9 53.5t17.5 54t28.5 47.5q-111 10 -181.5 55t-111.5 115.5t-57.5 162t-16.5 195.5z" />
<glyph unicode="&#xe8;" horiz-adv-x="1105" d="M143 512q0 111 18.5 208t66.5 169t132 113.5t213 41.5q131 0 208 -41.5t117 -113.5t52.5 -169t12.5 -208v-66h-676q2 -68 15 -129t44 -108t86 -75t141 -28q111 0 187 12.5t151 45.5v-123q-86 -39 -174 -50t-164 -11q-129 0 -213 41.5t-132 113.5t-66.5 169t-18.5 208z M246 1536h194l164 -358h-61zM287 563h532q0 68 -5 132.5t-29.5 113.5t-74 79t-137.5 30q-90 0 -144 -30t-85 -79t-43 -112.5t-14 -133.5z" />
<glyph unicode="&#xe9;" horiz-adv-x="1105" d="M143 512q0 111 18.5 208t66.5 169t132 113.5t213 41.5q131 0 208 -41.5t117 -113.5t52.5 -169t12.5 -208v-66h-676q2 -68 15 -129t44 -108t86 -75t141 -28q111 0 187 12.5t151 45.5v-123q-86 -39 -174 -50t-164 -11q-129 0 -213 41.5t-132 113.5t-66.5 169t-18.5 208z M287 563h532q0 68 -5 132.5t-29.5 113.5t-74 79t-137.5 30q-90 0 -144 -30t-85 -79t-43 -112.5t-14 -133.5zM543 1178l164 358h194l-297 -358h-61z" />
<glyph unicode="&#xea;" horiz-adv-x="1105" d="M143 512q0 111 18.5 208t66.5 169t132 113.5t213 41.5q131 0 208 -41.5t117 -113.5t52.5 -169t12.5 -208v-66h-676q2 -68 15 -129t44 -108t86 -75t141 -28q111 0 187 12.5t151 45.5v-123q-86 -39 -174 -50t-164 -11q-129 0 -213 41.5t-132 113.5t-66.5 169t-18.5 208z M236 1178l256 358h163l256 -358h-61l-277 237l-276 -237h-61zM287 563h532q0 68 -5 132.5t-29.5 113.5t-74 79t-137.5 30q-90 0 -144 -30t-85 -79t-43 -112.5t-14 -133.5z" />
<glyph unicode="&#xeb;" horiz-adv-x="1105" d="M143 512q0 111 18.5 208t66.5 169t132 113.5t213 41.5q131 0 208 -41.5t117 -113.5t52.5 -169t12.5 -208v-66h-676q2 -68 15 -129t44 -108t86 -75t141 -28q111 0 187 12.5t151 45.5v-123q-86 -39 -174 -50t-164 -11q-129 0 -213 41.5t-132 113.5t-66.5 169t-18.5 208z M256 1403q0 47 33 80t80 33t79.5 -33t32.5 -80t-32.5 -80t-79.5 -33t-80 33t-33 80zM287 563h532q0 68 -5 132.5t-29.5 113.5t-74 79t-137.5 30q-90 0 -144 -30t-85 -79t-43 -112.5t-14 -133.5zM666 1403q0 47 32.5 80t79.5 33t80 -33t33 -80t-33 -80t-80 -33t-79.5 33 t-32.5 80z" />
<glyph unicode="&#xec;" horiz-adv-x="552" d="M-61 1536h194l164 -358h-61zM197 205v819h139v-836q0 -53 19.5 -72.5t66.5 -19.5v-116q-111 0 -168 51t-57 174z" />
<glyph unicode="&#xed;" horiz-adv-x="552" d="M197 205v819h139v-836q0 -53 19.5 -72.5t66.5 -19.5v-116q-111 0 -168 51t-57 174zM236 1178l163 358h195l-297 -358h-61z" />
<glyph unicode="&#xee;" horiz-adv-x="552" d="M-72 1178l256 358h164l256 -358h-61l-277 237l-276 -237h-62zM197 205v819h139v-836q0 -53 19.5 -72.5t66.5 -19.5v-116q-111 0 -168 51t-57 174z" />
<glyph unicode="&#xef;" horiz-adv-x="552" d="M-51 1403q0 47 32.5 80t79.5 33t80 -33t33 -80t-33 -80t-80 -33t-79.5 33t-32.5 80zM197 205v819h139v-836q0 -53 19.5 -72.5t66.5 -19.5v-116q-111 0 -168 51t-57 174zM358 1403q0 47 33 80t80 33t80 -33t33 -80t-33 -80t-80 -33t-80 33t-33 80z" />
<glyph unicode="&#xf0;" horiz-adv-x="1126" d="M113 512q0 117 21.5 215t72.5 169t138 109.5t218 38.5q63 0 116.5 -14t100.5 -39q-35 82 -84 151.5t-106 129.5l-314 -160v121l230 117q-72 61 -144.5 107t-132.5 79h234q33 -20 77 -50t91 -73l239 123v-121l-157 -80q55 -59 107 -138t94 -179t69 -226t31 -280 q0 -117 -20.5 -215t-73 -169t-139.5 -109.5t-218 -38.5t-218 38.5t-138 109.5t-72.5 169t-21.5 215zM256 512q0 -86 10 -161t42 -129t92.5 -85t162.5 -31q100 0 160.5 31t93.5 85t43 129t10 161t-10 161t-43 129t-93 85t-161 31q-102 0 -162.5 -31t-92.5 -85t-42 -129 t-10 -161z" />
<glyph unicode="&#xf1;" horiz-adv-x="1085" d="M164 0v1024h80l30 -86q143 106 310 106q184 0 266 -79.5t82 -227.5v-737h-144v743q0 100 -54 137.5t-150 37.5q-100 0 -159.5 -16.5t-117.5 -49.5v-852h-143zM203 1260q-8 109 52 167t171 58q63 0 102 -21.5t69 -46t58.5 -46t71.5 -21.5q39 0 59.5 11t29.5 26.5t10 34 t1 34.5l117 -2q8 -109 -53.5 -167t-171.5 -58q-63 0 -102 21.5t-69 46t-58.5 46t-71.5 21.5q-39 0 -58.5 -11.5t-28.5 -26.5t-10.5 -34.5t-1.5 -34.5z" />
<glyph unicode="&#xf2;" horiz-adv-x="1146" d="M143 512q0 117 18.5 215t65.5 169t131 109.5t215 38.5t215 -38.5t132.5 -109.5t66 -169t17.5 -215t-17.5 -215t-66 -169t-132 -109.5t-215.5 -38.5q-131 0 -215 38.5t-131 109.5t-65.5 169t-18.5 215zM246 1536h194l164 -358h-61zM287 512q0 -86 7 -161t34.5 -129t85 -85 t159.5 -31q100 0 157.5 31t86.5 85t36 129t7 161t-7 161t-36 129t-86 85t-158 31q-102 0 -159.5 -31t-85 -85t-34.5 -129t-7 -161z" />
<glyph unicode="&#xf3;" horiz-adv-x="1146" d="M143 512q0 117 18.5 215t65.5 169t131 109.5t215 38.5t215 -38.5t132.5 -109.5t66 -169t17.5 -215t-17.5 -215t-66 -169t-132 -109.5t-215.5 -38.5q-131 0 -215 38.5t-131 109.5t-65.5 169t-18.5 215zM287 512q0 -86 7 -161t34.5 -129t85 -85t159.5 -31q100 0 157.5 31 t86.5 85t36 129t7 161t-7 161t-36 129t-86 85t-158 31q-102 0 -159.5 -31t-85 -85t-34.5 -129t-7 -161zM543 1178l164 358h194l-297 -358h-61z" />
<glyph unicode="&#xf4;" horiz-adv-x="1146" d="M143 512q0 117 18.5 215t65.5 169t131 109.5t215 38.5t215 -38.5t132.5 -109.5t66 -169t17.5 -215t-17.5 -215t-66 -169t-132 -109.5t-215.5 -38.5q-131 0 -215 38.5t-131 109.5t-65.5 169t-18.5 215zM236 1178l256 358h163l256 -358h-61l-277 237l-276 -237h-61z M287 512q0 -86 7 -161t34.5 -129t85 -85t159.5 -31q100 0 157.5 31t86.5 85t36 129t7 161t-7 161t-36 129t-86 85t-158 31q-102 0 -159.5 -31t-85 -85t-34.5 -129t-7 -161z" />
<glyph unicode="&#xf5;" horiz-adv-x="1146" d="M143 512q0 117 18.5 215t65.5 169t131 109.5t215 38.5t215 -38.5t132.5 -109.5t66 -169t17.5 -215t-17.5 -215t-66 -169t-132 -109.5t-215.5 -38.5q-131 0 -215 38.5t-131 109.5t-65.5 169t-18.5 215zM203 1260q-8 109 52 167t171 58q63 0 102 -21.5t69 -46t58.5 -46 t71.5 -21.5q39 0 59.5 11t29.5 26.5t10 34t1 34.5l117 -2q8 -109 -53.5 -167t-171.5 -58q-63 0 -102 21.5t-69 46t-58.5 46t-71.5 21.5q-39 0 -58.5 -11.5t-28.5 -26.5t-10.5 -34.5t-1.5 -34.5zM287 512q0 -86 7 -161t34.5 -129t85 -85t159.5 -31q100 0 157.5 31t86.5 85 t36 129t7 161t-7 161t-36 129t-86 85t-158 31q-102 0 -159.5 -31t-85 -85t-34.5 -129t-7 -161z" />
<glyph unicode="&#xf6;" horiz-adv-x="1146" d="M143 512q0 117 18.5 215t65.5 169t131 109.5t215 38.5t215 -38.5t132.5 -109.5t66 -169t17.5 -215t-17.5 -215t-66 -169t-132 -109.5t-215.5 -38.5q-131 0 -215 38.5t-131 109.5t-65.5 169t-18.5 215zM256 1403q0 47 33 80t80 33t79.5 -33t32.5 -80t-32.5 -80t-79.5 -33 t-80 33t-33 80zM287 512q0 -86 7 -161t34.5 -129t85 -85t159.5 -31q100 0 157.5 31t86.5 85t36 129t7 161t-7 161t-36 129t-86 85t-158 31q-102 0 -159.5 -31t-85 -85t-34.5 -129t-7 -161zM666 1403q0 47 32.5 80t79.5 33t80 -33t33 -80t-33 -80t-80 -33t-79.5 33t-32.5 80z " />
<glyph unicode="&#xf7;" horiz-adv-x="1064" d="M123 631v135h819v-135h-819zM420 381q0 47 32.5 80t79.5 33t80 -33t33 -80t-32.5 -80t-80.5 -33q-47 0 -79.5 33t-32.5 80zM420 1016q0 47 32.5 79.5t79.5 32.5t80 -32.5t33 -79.5t-32.5 -80t-80.5 -33q-47 0 -79.5 33t-32.5 80z" />
<glyph unicode="&#xf8;" horiz-adv-x="1146" d="M143 512q0 117 18.5 215t65.5 169t131 109.5t215 38.5q84 0 146.5 -16t109.5 -45l27 41h127l-76 -113q55 -72 76 -173t21 -226q0 -117 -17.5 -215t-66 -169t-132 -109.5t-215.5 -38.5q-162 0 -256 59l-26 -39h-127l76 111q-55 72 -76 173t-21 228zM287 512 q0 -84 5 -154.5t30 -124.5l432 639q-33 23 -77 34.5t-104 11.5q-102 0 -159.5 -31t-85 -85t-34.5 -129t-7 -161zM391 150q63 -43 182 -44q100 0 157.5 31t86.5 85t36 129t7 161q0 82 -6 152.5t-31 123.5z" />
<glyph unicode="&#xf9;" horiz-adv-x="1085" d="M154 287v737h143v-750q0 -100 54.5 -137t150.5 -37q100 0 159.5 16.5t116.5 49.5v858h144v-1024h-80l-31 86q-143 -106 -309 -106q-184 0 -266 79.5t-82 227.5zM211 1536h195l163 -358h-61z" />
<glyph unicode="&#xfa;" horiz-adv-x="1085" d="M154 287v737h143v-750q0 -100 54.5 -137t150.5 -37q100 0 159.5 16.5t116.5 49.5v858h144v-1024h-80l-31 86q-143 -106 -309 -106q-184 0 -266 79.5t-82 227.5zM508 1178l164 358h194l-297 -358h-61z" />
<glyph unicode="&#xfb;" horiz-adv-x="1085" d="M154 287v737h143v-750q0 -100 54.5 -137t150.5 -37q100 0 159.5 16.5t116.5 49.5v858h144v-1024h-80l-31 86q-143 -106 -309 -106q-184 0 -266 79.5t-82 227.5zM201 1178l256 358h164l256 -358h-62l-276 237l-277 -237h-61z" />
<glyph unicode="&#xfc;" horiz-adv-x="1085" d="M154 287v737h143v-750q0 -100 54.5 -137t150.5 -37q100 0 159.5 16.5t116.5 49.5v858h144v-1024h-80l-31 86q-143 -106 -309 -106q-184 0 -266 79.5t-82 227.5zM221 1403q0 47 33 80t80 33t79.5 -33t32.5 -80t-32.5 -80t-79.5 -33t-80 33t-33 80zM631 1403q0 47 32.5 80 t79.5 33t80 -33t33 -80t-32.5 -80t-80.5 -33q-47 0 -79.5 33t-32.5 80z" />
<glyph unicode="&#xfd;" horiz-adv-x="1044" d="M72 1024h164l286 -840l287 840h164l-590 -1536h-154l232 539zM492 1178l163 358h195l-297 -358h-61z" />
<glyph unicode="&#xfe;" horiz-adv-x="1157" d="M164 -512v2048h143v-575q66 43 140.5 63t146.5 20q123 0 205 -41.5t129 -113.5t66.5 -169t19.5 -208t-19.5 -208t-66.5 -169t-129 -113.5t-205 -41.5q-76 0 -145.5 21.5t-141.5 61.5v-575h-143zM307 172q59 -33 123 -49.5t164 -16.5q92 0 146.5 35t84 92.5t37.5 130 t8 148.5t-8 148.5t-37.5 130t-84 92.5t-146.5 35q-108 -1 -176 -21q-70 -23 -111 -45v-680z" />
<glyph unicode="&#xff;" horiz-adv-x="1044" d="M72 1024h164l286 -840l287 840h164l-590 -1536h-154l232 539zM205 1403q0 47 32.5 80t79.5 33t80 -33t33 -80t-33 -80t-80 -33t-79.5 33t-32.5 80zM614 1403q0 47 33 80t80 33t80 -33t33 -80t-33 -80t-80 -33t-80 33t-33 80z" />
<glyph unicode="&#x152;" horiz-adv-x="1843" d="M133 768q0 164 31 304t104.5 243.5t198.5 162t313 58.5h930v-135h-666v-537h594v-135h-594v-594h666v-135h-930q-188 0 -313 58.5t-198.5 162t-104.5 243.5t-31 304zM291 768q0 -139 23.5 -255t79 -200t147.5 -131t231 -47h127v1266h-127q-139 0 -231 -47t-147.5 -131 t-79 -201t-23.5 -254z" />
<glyph unicode="&#x153;" horiz-adv-x="1822" d="M143 512q0 117 18.5 215t65.5 169t131 109.5t215 38.5q143 0 228.5 -45t132.5 -127q47 80 132 126t224 46q131 0 208 -41.5t117 -113.5t52 -169t12 -208v-66h-675q2 -68 15 -129t44 -108t86 -75t141 -28q111 0 186.5 12.5t151.5 45.5v-123q-86 -39 -174 -50t-164 -11 q-139 0 -224 46t-132 126q-47 -82 -132 -127t-229 -45q-131 0 -215 38.5t-131 109.5t-65.5 169t-18.5 215zM287 512q0 -86 7 -161t34.5 -129t85 -85t159.5 -31q100 0 157.5 31t86.5 85t36 129t7 161t-7 161t-36 129t-86 85t-158 31q-102 0 -159.5 -31t-85 -85t-34.5 -129 t-7 -161zM1004 563h532q0 68 -5 132.5t-29.5 113.5t-74 79t-137.5 30q-90 0 -144 -30t-85 -79t-43 -112.5t-14 -133.5z" />
<glyph unicode="&#x178;" horiz-adv-x="1433" d="M92 1536h176l449 -772l448 772h176l-553 -901v-635h-143v635zM401 1915q0 47 33 80t80 33t80 -33t33 -80t-33 -80t-80 -33t-80 33t-33 80zM811 1915q0 47 33 80t80 33t79.5 -33t32.5 -80t-32.5 -80t-79.5 -33t-80 33t-33 80z" />
<glyph unicode="&#x2c6;" horiz-adv-x="1105" d="M236 1178l256 358h163l256 -358h-61l-277 237l-276 -237h-61z" />
<glyph unicode="&#x2dc;" horiz-adv-x="1232" d="M203 1260q-8 109 52 167t171 58q63 0 102 -21.5t69 -46t58.5 -46t71.5 -21.5q39 0 59.5 11t29.5 26.5t10 34t1 34.5l117 -2q8 -109 -53.5 -167t-171.5 -58q-63 0 -102 21.5t-69 46t-58.5 46t-71.5 21.5q-39 0 -58.5 -11.5t-28.5 -26.5t-10.5 -34.5t-1.5 -34.5z" />
<glyph unicode="&#x2000;" horiz-adv-x="1034" />
<glyph unicode="&#x2001;" horiz-adv-x="2068" />
<glyph unicode="&#x2002;" horiz-adv-x="1034" />
<glyph unicode="&#x2003;" horiz-adv-x="2068" />
<glyph unicode="&#x2004;" horiz-adv-x="689" />
<glyph unicode="&#x2005;" horiz-adv-x="517" />
<glyph unicode="&#x2006;" horiz-adv-x="344" />
<glyph unicode="&#x2007;" horiz-adv-x="344" />
<glyph unicode="&#x2008;" horiz-adv-x="258" />
<glyph unicode="&#x2009;" horiz-adv-x="413" />
<glyph unicode="&#x200a;" horiz-adv-x="114" />
<glyph unicode="&#x2010;" horiz-adv-x="757" d="M123 631v135h512v-135h-512z" />
<glyph unicode="&#x2011;" horiz-adv-x="757" d="M123 631v135h512v-135h-512z" />
<glyph unicode="&#x2012;" horiz-adv-x="757" d="M123 631v135h512v-135h-512z" />
<glyph unicode="&#x2013;" horiz-adv-x="1024" d="M123 631v135h778v-135h-778z" />
<glyph unicode="&#x2014;" horiz-adv-x="2048" d="M123 631v135h1802v-135h-1802z" />
<glyph unicode="&#x2018;" horiz-adv-x="327" d="M16 1024q4 119 35 214t66 161q41 78 94 137h49q-27 -61 -45 -141q-16 -68 -23.5 -161t9.5 -210h-185z" />
<glyph unicode="&#x2019;" horiz-adv-x="327" d="M68 1024q27 61 45 141q16 68 23 161t-9 210h184q-4 -121 -34.5 -215t-65.5 -160q-41 -78 -94 -137h-49z" />
<glyph unicode="&#x201a;" horiz-adv-x="327" d="M68 -328q27 61 45 142q16 68 23 161t-9 209h184q-4 -121 -34.5 -215t-65.5 -159q-41 -78 -94 -138h-49z" />
<glyph unicode="&#x201c;" horiz-adv-x="634" d="M16 1024q4 119 35 214t66 161q41 78 94 137h49q-27 -61 -45 -141q-16 -68 -23.5 -161t9.5 -210h-185zM324 1024q4 119 34.5 214t65.5 161q41 78 94 137h49q-27 -61 -45 -141q-16 -68 -23 -161t9 -210h-184z" />
<glyph unicode="&#x201d;" horiz-adv-x="634" d="M68 1024q27 61 45 141q16 68 23 161t-9 210h184q-4 -121 -34.5 -215t-65.5 -160q-41 -78 -94 -137h-49zM375 1024q27 61 45 141q16 68 23.5 161t-9.5 210h184q-4 -121 -34.5 -215t-65.5 -160q-41 -78 -94 -137h-49z" />
<glyph unicode="&#x201e;" horiz-adv-x="634" d="M68 -328q27 61 45 142q16 68 23 161t-9 209h184q-4 -121 -34.5 -215t-65.5 -159q-41 -78 -94 -138h-49zM375 -328q27 61 45 142q16 68 23.5 161t-9.5 209h184q-4 -121 -34.5 -215t-65.5 -159q-41 -78 -94 -138h-49z" />
<glyph unicode="&#x2022;" horiz-adv-x="819" d="M133 768q0 57 21.5 107.5t59.5 88t88 59t108 21.5q57 0 107 -21.5t88 -59t59.5 -88t21.5 -107.5t-21.5 -107.5t-59.5 -88t-88 -59t-107 -21.5t-107.5 21.5t-88.5 59t-59.5 88t-21.5 107.5z" />
<glyph unicode="&#x2026;" horiz-adv-x="2027" d="M225 92q0 47 33 80t80 33t80 -33t33 -80t-33 -79.5t-80 -32.5t-80 32.5t-33 79.5zM901 92q0 47 33 80t80 33t79.5 -33t32.5 -80t-32.5 -79.5t-79.5 -32.5t-80 32.5t-33 79.5zM1577 92q0 47 32.5 80t80.5 33q47 0 79.5 -33t32.5 -80t-32.5 -79.5t-79.5 -32.5t-80 32.5 t-33 79.5z" />
<glyph unicode="&#x202f;" horiz-adv-x="413" />
<glyph unicode="&#x2039;" horiz-adv-x="624" d="M113 444v136l389 286v-155l-248 -199l248 -199v-157z" />
<glyph unicode="&#x203a;" horiz-adv-x="624" d="M123 156v157l248 199l-248 199v155l389 -286v-136z" />
<glyph unicode="&#x205f;" horiz-adv-x="517" />
<glyph unicode="&#x20ac;" d="M123 545v135h123v176h-123v135h131q10 131 41 235.5t90 178.5t152.5 112.5t230.5 38.5q76 0 167 -14t159 -43v-123q-59 20 -137 37t-189 17q-96 0 -162.5 -31t-109.5 -88.5t-66.5 -138t-32.5 -181.5h572l-47 -135h-533v-176h471l-47 -135h-416q8 -100 32 -181t67 -138.5 t109.5 -88.5t162.5 -31q111 0 188.5 16.5t137.5 37.5v-123q-68 -29 -159 -43t-167 -14q-137 0 -230.5 38.5t-152.5 111.5t-90 177.5t-41 237.5h-131z" />
<glyph unicode="&#x2122;" horiz-adv-x="1177" d="M31 1475v61h413v-61h-170v-451h-73v451h-170zM553 1024v512h88l178 -373l180 373h86v-512h-65l4 420l-174 -354h-59l-175 354l5 -420h-68z" />
<glyph unicode="&#xe000;" horiz-adv-x="1024" d="M0 0v1024h1024v-1024h-1024z" />
</font>
</defs>
</svg>
